×

¿Problemas para descargar con Mozilla, EDGE? Deshabilita la opción "Abrir vinculos en una pestaña nueva" tal como lo muestra ésta imagen.

Una noche dura (2019) WEB-DL 1080p Latino

1.262 vistas

Información de Una noche dura (2019) WEB-DL 1080p Latino

Datos de la película

  • Calidad: WEBDL
  • Audio: Español Latino AC3 5.1 iTunes - Ingles AC3 5.1 iTunes
  • Subtitulos: Español Latino SRT
  • Resolución: 1920x792
  • Formato: MKV
  • Codec: H.264
  • Encoder: cinemaniahdd
  • Mediainfo: Clic para Mostrar Datos Ver
  • Una noche dura (2019) WEB-DL 1080p Latino.mkv
    Format                      : Matroska
    Format version              : Version 4
    File size                   : 3.08 GiB
    Duration                    : 1 h 25 min
    Overall bit rate            : 5 158 kb/s
    Movie name                  : Una noche dura (2019) - CinemaniaHDD.Net
    Encoded date                : UTC 2019-12-14 00:21:12
    Writing application         : mkvmerge v38.0.0 ('The Silent Type') 64-bit
    Writing library             : libebml v1.3.9 + libmatroska v1.5.2

    Video
    ID                          : 1
    Format                      : AVC
    Format/Info                 : Advanced Video Codec
    Format profile              : High@L4
    Format settings             : CABAC / 5 Ref Frames
    Format settings, CABAC      : Yes
    Format settings, ReFrames   : 5 frames
    Codec ID                    : V_MPEG4/ISO/AVC
    Duration                    : 1 h 25 min
    Bit rate                    : 4 388 kb/s
    Width                       : 1 908 pixels
    Height                      : 792 pixels
    Display aspect ratio        : 2.40:1
    Frame rate mode             : Constant
    Frame rate                  : 23.976 (24000/1001) FPS
    Color space                 : YUV
    Chroma subsampling          : 4:2:0
    Bit depth                   : 8 bits
    Scan type                   : Progressive
    Bits/(Pixel*Frame)          : 0.121
    Stream size                 : 2.62 GiB (85%)
    Title                       : CinemaniaHDD
    Language                    : English
    Default                     : Yes
    Forced                      : No
    Color range                 : Limited
    Color primaries             : BT.709
    Transfer characteristics    : BT.709
    Matrix coefficients         : BT.709

    Audio #1
    ID                          : 2
    Format                      : AC-3
    Format/Info                 : Audio Coding 3
    Commercial name             : Dolby Digital
    Codec ID                    : A_AC3
    Duration                    : 1 h 25 min
    Bit rate mode               : Constant
    Bit rate                    : 384 kb/s
    Channel(s)                  : 6 channels
    Channel layout              : L R C LFE Ls Rs
    Sampling rate               : 48.0 kHz
    Frame rate                  : 31.250 FPS (1536 SPF)
    Bit depth                   : 16 bits
    Compression mode            : Lossy
    Delay relative to video     : -42 ms
    Stream size                 : 235 MiB (7%)
    Title                       : Español latino [CinemaniaHDD]
    Language                    : Spanish
    Service kind                : Complete Main
    Default                     : Yes
    Forced                      : No

    Audio #2
    ID                          : 3
    Format                      : AC-3
    Format/Info                 : Audio Coding 3
    Commercial name             : Dolby Digital
    Codec ID                    : A_AC3
    Duration                    : 1 h 25 min
    Bit rate mode               : Constant
    Bit rate                    : 384 kb/s
    Channel(s)                  : 6 channels
    Channel layout              : L R C LFE Ls Rs
    Sampling rate               : 48.0 kHz
    Frame rate                  : 31.250 FPS (1536 SPF)
    Bit depth                   : 16 bits
    Compression mode            : Lossy
    Delay relative to video     : -42 ms
    Stream size                 : 235 MiB (7%)
    Title                       : Inglés [CinemaniaHDD]
    Language                    : English
    Service kind                : Complete Main
    Default                     : No
    Forced                      : No

    Text
    ID                          : 4
    Format                      : UTF-8
    Codec ID                    : S_TEXT/UTF8
    Codec ID/Info               : UTF-8 Plain Text
    Duration                    : 1 h 18 min
    Bit rate                    : 23 b/s
    Count of elements           : 584
    Stream size                 : 13.8 KiB (0%)
    Title                       : Español latino [CinemaniaHDD]
    Language                    : Spanish
    Default                     : No
    Forced                      : No

    Menu
    00:00:00.000                : en:1
    00:02:06.000                : en:2
    00:10:43.000                : en:3
    00:17:57.000                : en:4
    00:27:57.000                : en:5
    00:36:01.000                : en:6
    00:45:43.000                : en:7
    00:58:02.000                : en:8
    01:08:29.000                : en:9
    01:20:15.000                : en:10

     

  • Peso: 3.08 GiB

Sinopsis

Goro, un autor intelectual criminal, conspira para robar un enorme alijo de oro de la familia Rossini. Sin el conocimiento de Goro y sus soldados de la fortuna, uno de los invitados de Rossini es un agente extranjero altamente capacitado que lucha no solo por salvar a los rehenes y el oro, sino a su familia en peligro.

Ficha técnica

Video trailer de la película

Enlaces de descarga

Rip de Bluray

Descargar Una noche dura (2019) WEB-DL 1080p Latino




Aportes de DPeliculasHDmega la pass es:dpeliculashdmega.org Aportes de CinemaniaHD la pass es:cinemaniahdd.com
Guardado en : Acción , Suspenso

Películas relacionadas

  • Resurrección (2022) AMZN WEB-DL 1080p Latino

    Resurrección (2022) AMZN WEB-DL 1080p Latino

    2022
    Resurrección (2022) AMZN WEB-DL 1080p Latino

    1h 43m 2022

    Descargar Resurrección (2022) AMZN Web-DL 1080p Latino. La vida cuidadosamente construida de una mujer...

    Director: Michael Kefeyalew

    Género: Drama

    Actores: Zarra Kaahn

  • Plan De Estudios (2022) NF WEB-DL 1080p Latino

    Plan De Estudios (2022) NF WEB-DL 1080p Latino

    2022
    Plan De Estudios (2022) NF WEB-DL 1080p Latino

    1h 41m 2022

    Un expolicía empieza a trabajar en el instituto en el que su difunto mejor amigo daba clase para enfrentarse...

    Director: Daniel Markowicz

    Género: Crimen

    Actores: Zuzanna Galewicz

  • La Mujer Rey (2022) WEB-DL 1080p Latino

    La Mujer Rey (2022) WEB-DL 1080p Latino

    2022
    La Mujer Rey (2022) WEB-DL 1080p Latino

    2h 15m 2022

    Descargar La Mujer Rey (2022) WEB-DL 1080p Latino. Una epopeya histórica inspirada en los hechos reales...

    Director: Gina Prince-Bythewood

    Género: Acción

    Actores: Wanda Banda

  • Black Adam (2022) WEB-DL 4K UHD HDR Latino

    Black Adam (2022) WEB-DL 4K UHD HDR Latino

    2022
    Black Adam (2022) WEB-DL 4K UHD HDR Latino

    2h 4m 2022

    Descargar Black Adam (2022) WEB-DL 4K UHD HDR Latino. Casi 5.000 años después de haber sido dotado...

    Director: Jaume Collet-Serra

    Género: 4K HDR

    Actores: Yssa Mei Panganiban

  • Black Adam (2022) MA WEB-DL 1080p Latino

    Black Adam (2022) MA WEB-DL 1080p Latino

    2022
    Black Adam (2022) MA WEB-DL 1080p Latino

    2h 4m 2022

    Descargar Black Adam (2022) MA WEB-DL 1080p Latino. Casi 5.000 años después de haber sido dotado de...

    Director: Jaume Collet-Serra

    Género: Acción

    Actores: Yssa Mei Panganiban

descargar Una noche dura (2019) WEB-DL 1080p Latino WEBDL 1080p gratis, Una noche dura (2019) WEB-DL 1080p Latino WEBDL mega 1 link, Una noche dura (2019) WEB-DL 1080p Latino WEBDL pelicula completa, descargar Una noche dura (2019) WEB-DL 1080p Latino WEBDL gratis en mega.

Una noche dura (2019) WEB-DL 1080p Latino pelicula full hd, Una noche dura (2019) WEB-DL 1080p Latino mega latino, Una noche dura (2019) WEB-DL 1080p Latino 4k latino, Una noche dura (2019) WEB-DL 1080p Latino pelicula completa, Una noche dura (2019) WEB-DL 1080p Latino descargar gratis, descargar Una noche dura (2019) WEB-DL 1080p Latino pelicula latino, Una noche dura (2019) WEB-DL 1080p Latino 1 link mega, Una noche dura (2019) WEB-DL 1080p Latino 1 link google drive, Una noche dura (2019) WEB-DL 1080p Latino hd 1080p latino.
Comentarios 0