×

¿Problemas para descargar con Mozilla, EDGE? Deshabilita la opción "Abrir vinculos en una pestaña nueva" tal como lo muestra ésta imagen.

Una loca entrevista (2014) NF WEB-DL 1080p Latino

88 vistas

Información de Una loca entrevista (2014) NF WEB-DL 1080p Latino

Datos de la película

  • Calidad: WEBDL
  • Audio: Español Latino E-AC3 5.1 Netflix - Ingles E-AC3 5.1 Netflix
  • Subtitulos: Español Latino SRT- FORZADOS SRT
  • Resolución: 1920x1080p
  • Formato: MKV
  • Codec: H.264
  • Encoder: Melkor
  • Mediainfo: Clic para Mostrar Datos Ver
  • The Interview (2014) NF WEB 1080p Latino.mkv
    Format                      : Matroska
    Format version              : Version 4
    File size                   : 4.92 GiB
    Duration                    : 1 h 52 min
    Overall bit rate mode       : Variable
    Overall bit rate            : 6 270 kb/s
    Movie name                  : The Interview (2014)  CinemaniaHDD.Net
    Encoded date                : UTC 2024-01-19 06:06:57
    Writing application         : mkvmerge v59.0.0 ('Shining Star') 64-bit
    Writing library             : libebml v1.4.2 + libmatroska v1.6.4
    Attachments                 : CINEMANIAHD.png
    Site                        : CinemaniaHDD.Net
    Uploader                    : Melkor

    Video
    ID                          : 1
    Format                      : AVC
    Format/Info                 : Advanced Video Codec
    Format profile              : Main@L4
    Format settings             : CABAC / 3 Ref Frames
    Format settings, CABAC      : Yes
    Format settings, Reference  : 3 frames
    Codec ID                    : V_MPEG4/ISO/AVC
    Duration                    : 1 h 52 min
    Bit rate mode               : Variable
    Bit rate                    : 5 000 kb/s
    Maximum bit rate            : 7 500 kb/s
    Width                       : 1 920 pixels
    Height                      : 1 080 pixels
    Display aspect ratio        : 16:9
    Frame rate mode             : Constant
    Frame rate                  : 23.976 (24000/1001) FPS
    Color space                 : YUV
    Chroma subsampling          : 4:2:0
    Bit depth                   : 8 bits
    Scan type                   : Progressive
    Bits/(Pixel*Frame)          : 0.101
    Stream size                 : 3.91 GiB (80%)
    Title                       : WEB HD1080p [CinemaniaHDD]
    Writing library             : x264 core 148 r2727 7d026e8
    Encoding settings           : cabac=1 / ref=3 / deblock=1:0:0 / analyse=0x1:0x111 / me=umh / subme=10 / psy=1 / psy_rd=1.00:0.00 / mixed_ref=1 / me_range=24 / chroma_me=1 / trellis=2 / 8x8dct=0 / cqm=0 / deadzone=21,11 / fast_pskip=1 / chroma_qp_offset=-2 / threads=6 / lookahead_threads=1 / sliced_threads=0 / nr=0 / decimate=1 / interlaced=0 / bluray_compat=0 / stitchable=1 / constrained_intra=0 / bframes=2 / b_pyramid=0 / b_adapt=2 / b_bias=0 / direct=3 / weightb=1 / open_gop=0 / weightp=2 / keyint=240 / keyint_min=121 / scenecut=0 / intra_refresh=0 / rc_lookahead=48 / rc=2pass / mbtree=1 / bitrate=5000 / ratetol=1.0 / qcomp=0.50 / qpmin=6 / qpmax=51 / qpstep=4 / cplxblur=20.0 / qblur=0.5 / vbv_maxrate=7500 / vbv_bufsize=10000 / nal_hrd=vbr / filler=0 / ip_ratio=1.40 / aq=1:1.00
    Default                     : Yes
    Forced                      : No

    Audio #1
    ID                          : 2
    Format                      : E-AC-3
    Format/Info                 : Enhanced AC-3
    Commercial name             : Dolby Digital Plus
    Codec ID                    : A_EAC3
    Duration                    : 1 h 52 min
    Bit rate mode               : Constant
    Bit rate                    : 640 kb/s
    Channel(s)                  : 6 channels
    Channel layout              : L R C LFE Ls Rs
    Sampling rate               : 48.0 kHz
    Frame rate                  : 31.250 FPS (1536 SPF)
    Compression mode            : Lossy
    Stream size                 : 514 MiB (10%)
    Title                       : Español Latino [CinemaniaHDD]
    Language                    : Spanish
    Service kind                : Complete Main
    Default                     : Yes
    Forced                      : No

    Audio #2
    ID                          : 3
    Format                      : E-AC-3
    Format/Info                 : Enhanced AC-3
    Commercial name             : Dolby Digital Plus
    Codec ID                    : A_EAC3
    Duration                    : 1 h 52 min
    Bit rate mode               : Constant
    Bit rate                    : 640 kb/s
    Channel(s)                  : 6 channels
    Channel layout              : L R C LFE Ls Rs
    Sampling rate               : 48.0 kHz
    Frame rate                  : 31.250 FPS (1536 SPF)
    Compression mode            : Lossy
    Stream size                 : 514 MiB (10%)
    Title                       : Ingles [CinemaniaHDD]
    Language                    : English
    Service kind                : Complete Main
    Default                     : No
    Forced                      : No

    Text #1
    ID                          : 4
    Format                      : UTF-8
    Codec ID                    : S_TEXT/UTF8
    Codec ID/Info               : UTF-8 Plain Text
    Duration                    : 1 h 51 min
    Bit rate                    : 2 b/s
    Count of elements           : 67
    Stream size                 : 2.12 KiB (0%)
    Title                       : Forzados-SRT [CinemaniaHDD]
    Language                    : Spanish
    Default                     : Yes
    Forced                      : Yes

    Text #2
    ID                          : 5
    Format                      : UTF-8
    Codec ID                    : S_TEXT/UTF8
    Codec ID/Info               : UTF-8 Plain Text
    Duration                    : 1 h 51 min
    Bit rate                    : 71 b/s
    Count of elements           : 1951
    Stream size                 : 58.5 KiB (0%)
    Title                       : Español-SRT [CinemaniaHDD]
    Language                    : Spanish
    Default                     : No
    Forced                      : No

    Text #3
    ID                          : 6
    Format                      : UTF-8
    Codec ID                    : S_TEXT/UTF8
    Codec ID/Info               : UTF-8 Plain Text
    Duration                    : 1 h 51 min
    Bit rate                    : 87 b/s
    Count of elements           : 2461
    Stream size                 : 71.8 KiB (0%)
    Title                       : Ingles-SRT [CinemaniaHDD]
    Language                    : English
    Default                     : No
    Forced                      : No

  • Peso: 4.92 GiB

Sinopsis

Descargar Una loca entrevista (2014) NF WEB-DL 1080p Latino. Dave Skylark, presentador de un conocido programa de entrevistas, y su productor, Aaron Rapoport, consiguen una entrevista exclusiva con Kim Jong-Un, dictador de Corea del Norte. Ante tal oportunidad, la CIA les pide un «favorcillo»: asesinar a Kim. Pero lo cierto es que Dave y Aaron no son las personas más cualificadas para realizar un magnicidio.

Ficha técnica

Video trailer de la película

Enlaces de descarga

Rip de Bluray

Descargar Una loca entrevista (2014) NF WEB-DL 1080p Latino




Aportes de DPeliculasHDmega la pass es:dpeliculashdmega.org Aportes de CinemaniaHD la pass es:cinemaniahdd.com Aportes recientes:cinemaniahdd.net
Guardado en : Acción , Comedia

Películas relacionadas

  • Puppy Love (2023) AMZN 4K-HDR WEB-DL 2160p Latino

    Puppy Love (2023) AMZN 4K-HDR WEB-DL 2160p Latino

    2023
    Puppy Love (2023) AMZN 4K-HDR WEB-DL 2160p Latino

    1h 46m 2023

    Después de una desastrosa primera cita, Nicole, una joven desenfrenada, y Max, socialmente ansioso,...

    Director: Trevor Cunningham

    Género: 4K HDR

    Actores: Sarah Almonte Peguero

  • Puppy Love (2023) AMZN WEB-DL 1080p Latino

    Puppy Love (2023) AMZN WEB-DL 1080p Latino

    2023
    Puppy Love (2023) AMZN WEB-DL 1080p Latino

    1h 46m 2023

    Después de una desastrosa primera cita, Nicole, una joven desenfrenada, y Max, socialmente ansioso,...

    Director: Trevor Cunningham

    Género: Comedia

    Actores: Sarah Almonte Peguero

  • Good Burger 2 (2023) HD 1080p Latino

    Good Burger 2 (2023) HD 1080p Latino

    2023
    Good Burger 2 (2023) HD 1080p Latino

    1h 31m 2023

    Descargar Good Burger 2 (2023) HD 1080p Latino. Después de que su último invento falla, Ed le da la...

    Director: Ross Novie

    Género: Comedia

    Actores: Zoe Saldana

  • Good Burger 2 (2023) PLACEBO Full HD 1080p Latino

    Good Burger 2 (2023) PLACEBO Full HD 1080p Latino

    2023
    Good Burger 2 (2023) PLACEBO Full HD 1080p Latino

    1h 31m 2023

    Descargar Good Burger 2 (2023) PLACEBO Full HD 1080p Latino. Después de que su último invento falla,...

    Director: Ross Novie

    Género: Comedia

    Actores: Zoe Saldana

  • Good Burger 2 (2023) REMUX 1080p Latino

    Good Burger 2 (2023) REMUX 1080p Latino

    2023
    Good Burger 2 (2023) REMUX 1080p Latino

    1h 31m 2023

    Descargar Good Burger 2 (2023) REMUX 1080p Latino. Después de que su último invento falla, Ed le da...

    Director: Ross Novie

    Género: Comedia

    Actores: Zoe Saldana

descargar Una loca entrevista (2014) NF WEB-DL 1080p Latino WEBDL 1080p gratis, Una loca entrevista (2014) NF WEB-DL 1080p Latino WEBDL mega 1 link, Una loca entrevista (2014) NF WEB-DL 1080p Latino WEBDL pelicula completa, descargar Una loca entrevista (2014) NF WEB-DL 1080p Latino WEBDL gratis en mega.

Una loca entrevista (2014) NF WEB-DL 1080p Latino pelicula full hd, Una loca entrevista (2014) NF WEB-DL 1080p Latino mega latino, Una loca entrevista (2014) NF WEB-DL 1080p Latino 4k latino, Una loca entrevista (2014) NF WEB-DL 1080p Latino pelicula completa, Una loca entrevista (2014) NF WEB-DL 1080p Latino descargar gratis, descargar Una loca entrevista (2014) NF WEB-DL 1080p Latino pelicula latino, Una loca entrevista (2014) NF WEB-DL 1080p Latino 1 link mega, Una loca entrevista (2014) NF WEB-DL 1080p Latino 1 link google drive, Una loca entrevista (2014) NF WEB-DL 1080p Latino hd 1080p latino.
Comentarios 0