×

¿Problemas para descargar con Mozilla, EDGE? Deshabilita la opción "Abrir vinculos en una pestaña nueva" tal como lo muestra ésta imagen.

Una Foto Antes De Morir (2019) PLACEBO 1080P Latino

1.202 vistas

Información de Una Foto Antes De Morir (2019) PLACEBO 1080P Latino

Datos de la película

  • Calidad: Full 1080p
  • Audio: Se especifica abajo de la Sinopsis
  • Subtitulos: Español Latino PGS - Ingles PGS
  • Resolución: 1920x1080
  • Formato: MKV
  • Codec: H.264
  • Encoder: cinemaniahdd
  • Mediainfo: Clic para Mostrar Datos Ver
  • Una Foto Antes De Morir (2019) PLACEBO 1080P Latino.mkv
    Format                      : Matroska
    Format version              : Version 4
    File size                   : 6.17 GiB
    Duration                    : 1 h 20 min
    Overall bit rate mode       : Variable
    Overall bit rate            : 11.0 Mb/s
    Movie name                  : Una Foto Antes de Morir (2019) -  CinemaniaHDD.Net
    Encoded date                : UTC 2019-09-22 19:59:01
    Writing application         : mkvmerge v35.0.0 ('All The Love In The World') 64-bit
    Writing library             : libebml v1.3.9 + libmatroska v1.5.2

    Video
    ID                          : 1
    Format                      : AVC
    Format/Info                 : Advanced Video Codec
    Format profile              : High@L4.1
    Format settings             : CABAC / 4 Ref Frames
    Format settings, CABAC      : Yes
    Format settings, ReFrames   : 4 frames
    Codec ID                    : V_MPEG4/ISO/AVC
    Duration                    : 1 h 20 min
    Bit rate                    : 4 425 kb/s
    Width                       : 1 920 pixels
    Height                      : 1 080 pixels
    Display aspect ratio        : 16:9
    Frame rate mode             : Constant
    Frame rate                  : 24.000 FPS
    Color space                 : YUV
    Chroma subsampling          : 4:2:0
    Bit depth                   : 8 bits
    Scan type                   : Progressive
    Bits/(Pixel*Frame)          : 0.089
    Stream size                 : 2.48 GiB (40%)
    Title                       : CinemaniaHDD
    Writing library             : x264 core 157 r2935 545de2f
    Encoding settings           : cabac=1 / ref=4 / deblock=1:0:0 / analyse=0x3:0x133 / me=tesa / subme=11 / psy=1 / psy_rd=1.00:0.00 / mixed_ref=1 / me_range=24 / chroma_me=1 / trellis=2 / 8x8dct=1 / cqm=0 / deadzone=21,11 / fast_pskip=0 / chroma_qp_offset=-2 / threads=34 / lookahead_threads=8 / sliced_threads=0 / nr=0 / decimate=1 / interlaced=0 / bluray_compat=0 / constrained_intra=0 / bframes=16 / b_pyramid=2 / b_adapt=2 / b_bias=0 / direct=3 / weightb=1 / open_gop=0 / weightp=2 / keyint=240 / keyint_min=24 / scenecut=40 / intra_refresh=0 / rc_lookahead=60 / rc=crf / mbtree=1 / crf=20.0 / qcomp=0.60 / qpmin=0 / qpmax=69 / qpstep=4 / vbv_maxrate=62500 / vbv_bufsize=78125 / crf_max=0.0 / nal_hrd=none / filler=0 / ip_ratio=1.40 / aq=1:1.00
    Default                     : Yes
    Forced                      : No
    Color range                 : Limited
    Color primaries             : BT.709
    Transfer characteristics    : BT.709
    Matrix coefficients         : BT.709

    Audio #1
    ID                          : 2
    Format                      : DTS XLL
    Format/Info                 : Digital Theater Systems
    Commercial name             : DTS-HD Master Audio
    Codec ID                    : A_DTS
    Duration                    : 1 h 20 min
    Bit rate mode               : Variable
    Bit rate                    : 3 789 kb/s
    Channel(s)                  : 6 channels
    Channel layout              : C L R Ls Rs LFE
    Sampling rate               : 48.0 kHz
    Frame rate                  : 93.750 FPS (512 SPF)
    Bit depth                   : 24 bits
    Compression mode            : Lossless
    Stream size                 : 2.12 GiB (34%)
    Title                       : Español latino [CinemaniaHDD]
    Language                    : Spanish
    Default                     : Yes
    Forced                      : No

    Audio #2
    ID                          : 3
    Format                      : DTS
    Format/Info                 : Digital Theater Systems
    Codec ID                    : A_DTS
    Duration                    : 1 h 20 min
    Bit rate mode               : Constant
    Bit rate                    : 1 509 kb/s
    Channel(s)                  : 6 channels
    Channel layout              : C L R Ls Rs LFE
    Sampling rate               : 48.0 kHz
    Frame rate                  : 93.750 FPS (512 SPF)
    Bit depth                   : 24 bits
    Compression mode            : Lossy
    Stream size                 : 865 MiB (14%)
    Title                       : Español latino [CinemaniaHDD]
    Default                     : No
    Forced                      : No

    Audio #3
    ID                          : 4
    Format                      : AC-3
    Format/Info                 : Audio Coding 3
    Commercial name             : Dolby Digital
    Codec ID                    : A_AC3
    Duration                    : 1 h 20 min
    Bit rate mode               : Constant
    Bit rate                    : 640 kb/s
    Channel(s)                  : 6 channels
    Channel layout              : L R C LFE Ls Rs
    Sampling rate               : 48.0 kHz
    Frame rate                  : 31.250 FPS (1536 SPF)
    Bit depth                   : 16 bits
    Compression mode            : Lossy
    Stream size                 : 367 MiB (6%)
    Title                       : Español latino [CinemaniaHDD]
    Language                    : Spanish
    Service kind                : Complete Main
    Default                     : No
    Forced                      : No

    Audio #4
    ID                          : 5
    Format                      : AC-3
    Format/Info                 : Audio Coding 3
    Commercial name             : Dolby Digital
    Codec ID                    : A_AC3
    Duration                    : 1 h 20 min
    Bit rate mode               : Constant
    Bit rate                    : 640 kb/s
    Channel(s)                  : 2 channels
    Channel layout              : L R
    Sampling rate               : 48.0 kHz
    Frame rate                  : 31.250 FPS (1536 SPF)
    Bit depth                   : 16 bits
    Compression mode            : Lossy
    Stream size                 : 367 MiB (6%)
    Title                       : Ingles [CinemaniaHDD]
    Language                    : English
    Service kind                : Complete Main
    Default                     : No
    Forced                      : No

    Text #1
    ID                          : 6
    Format                      : PGS
    Muxing mode                 : zlib
    Codec ID                    : S_HDMV/PGS
    Codec ID/Info               : Picture based subtitle format used on BDs/HD-DVDs
    Duration                    : 1 h 13 min
    Bit rate                    : 25.1 kb/s
    Count of elements           : 1261
    Stream size                 : 13.3 MiB (0%)
    Title                       : Español latino [CinemaniaHDD]
    Language                    : Spanish
    Default                     : No
    Forced                      : No

    Text #2
    ID                          : 7
    Format                      : PGS
    Muxing mode                 : zlib
    Codec ID                    : S_HDMV/PGS
    Codec ID/Info               : Picture based subtitle format used on BDs/HD-DVDs
    Duration                    : 1 h 14 min
    Bit rate                    : 24.8 kb/s
    Count of elements           : 1160
    Stream size                 : 13.1 MiB (0%)
    Title                       : Portuguez [CinemaniaHDD]
    Language                    : Portuguese
    Default                     : No
    Forced                      : No

    Menu
    00:00:00.000                : :Chapter 01

     

  • Peso: 6.17 GiB

Sinopsis

Un grupo de amigos decide pasar un fin de semana juntos en una casa de campo, pero un accidente inesperado los obliga a detenerse en una finca extraña y remota. En este lugar abandonado y misterioso, se descubre una rara cámara antigua. Lentamente, la cámara los introduce en una cadena de acontecimientos místicos y trágicos que ninguno de ellos pudo haber visto venir. Cualquiera que se tome una foto con la cámara ve una foto que revela su muerte. Muchos de ellos pierden la vida de una manera insoportable, mientras se apresuran a resolver el misterio de la cámara.

Español Latino DTS-MA + Core 5.1 – Ingles AC3 2.0 Bluray

Ficha técnica

Video trailer de la película

Enlaces de descarga

Rip de Bluray

Descargar Una Foto Antes De Morir (2019) PLACEBO 1080P Latino




Aportes de DPeliculasHDmega la pass es:dpeliculashdmega.org Aportes de CinemaniaHD la pass es:cinemaniahdd.com
Guardado en : Suspenso , Terror

Películas relacionadas

descargar Una Foto Antes De Morir (2019) PLACEBO 1080P Latino Full 1080p 1080p gratis, Una Foto Antes De Morir (2019) PLACEBO 1080P Latino Full 1080p mega 1 link, Una Foto Antes De Morir (2019) PLACEBO 1080P Latino Full 1080p pelicula completa, descargar Una Foto Antes De Morir (2019) PLACEBO 1080P Latino Full 1080p gratis en mega.

Una Foto Antes De Morir (2019) PLACEBO 1080P Latino pelicula full hd, Una Foto Antes De Morir (2019) PLACEBO 1080P Latino mega latino, Una Foto Antes De Morir (2019) PLACEBO 1080P Latino 4k latino, Una Foto Antes De Morir (2019) PLACEBO 1080P Latino pelicula completa, Una Foto Antes De Morir (2019) PLACEBO 1080P Latino descargar gratis, descargar Una Foto Antes De Morir (2019) PLACEBO 1080P Latino pelicula latino, Una Foto Antes De Morir (2019) PLACEBO 1080P Latino 1 link mega, Una Foto Antes De Morir (2019) PLACEBO 1080P Latino 1 link google drive, Una Foto Antes De Morir (2019) PLACEBO 1080P Latino hd 1080p latino.
Comentarios 0