×

¿Problemas para descargar con Mozilla, EDGE? Deshabilita la opción "Abrir vinculos en una pestaña nueva" tal como lo muestra ésta imagen.

Una Foto Antes de Morir (2018) WEB-DL 1080p Latino

1.016 vistas

Información de Una Foto Antes de Morir (2018) WEB-DL 1080p Latino

caHVolk6foU5MIqVc78twGbv3Pg

Datos de la película

  • Calidad: WEBDL
  • Audio: Se especifica abajo de la Sinopsis
  • Subtitulos: No
  • Resolución: 1920x804
  • Formato: MKV
  • Codec: H.264
  • Encoder: cinemaniahdd
  • Mediainfo: Clic para Mostrar Datos Ver
  • Deadly Still (2018) WEB-DL 1080p Latino.mkv
    Format                      : Matroska
    Format version              : Version 4
    File size                   : 2.78 GiB
    Duration                    : 1 h 13 min
    Overall bit rate            : 5 404 kb/s
    Movie name                  : Deadly Still (2018) - CinemaiaHDD
    Encoded date                : UTC 2019-09-12 02:15:47
    Writing application         : mkvmerge v35.0.0 ('All The Love In The World') 64-bit
    Writing library             : libebml v1.3.9 + libmatroska v1.5.2

    Video
    ID                          : 1
    Format                      : AVC
    Format/Info                 : Advanced Video Codec
    Format profile              : High@L4
    Format settings             : CABAC / 5 Ref Frames
    Format settings, CABAC      : Yes
    Format settings, ReFrames   : 5 frames
    Codec ID                    : V_MPEG4/ISO/AVC
    Duration                    : 1 h 13 min
    Bit rate                    : 4 571 kb/s
    Width                       : 1 920 pixels
    Height                      : 804 pixels
    Display aspect ratio        : 2.40:1
    Frame rate mode             : Constant
    Frame rate                  : 24.000 FPS
    Color space                 : YUV
    Chroma subsampling          : 4:2:0
    Bit depth                   : 8 bits
    Scan type                   : Progressive
    Bits/(Pixel*Frame)          : 0.123
    Stream size                 : 2.35 GiB (85%)
    Title                       : CinemaniaHDD
    Language                    : English
    Default                     : Yes
    Forced                      : No
    Color range                 : Limited
    Color primaries             : BT.709
    Transfer characteristics    : BT.709
    Matrix coefficients         : BT.709

    Audio #1
    ID                          : 2
    Format                      : AC-3
    Format/Info                 : Audio Coding 3
    Commercial name             : Dolby Digital
    Codec ID                    : A_AC3
    Duration                    : 1 h 13 min
    Bit rate mode               : Constant
    Bit rate                    : 448 kb/s
    Channel(s)                  : 6 channels
    Channel layout              : L R C LFE Ls Rs
    Sampling rate               : 48.0 kHz
    Frame rate                  : 31.250 FPS (1536 SPF)
    Bit depth                   : 16 bits
    Compression mode            : Lossy
    Stream size                 : 236 MiB (8%)
    Title                       : Español latino [CinemaniaHDD]
    Language                    : Spanish
    Service kind                : Complete Main
    Default                     : Yes
    Forced                      : No

    Audio #2
    ID                          : 3
    Format                      : AC-3
    Format/Info                 : Audio Coding 3
    Commercial name             : Dolby Digital
    Codec ID                    : A_AC3
    Duration                    : 1 h 13 min
    Bit rate mode               : Constant
    Bit rate                    : 384 kb/s
    Channel(s)                  : 6 channels
    Channel layout              : L R C LFE Ls Rs
    Sampling rate               : 48.0 kHz
    Frame rate                  : 31.250 FPS (1536 SPF)
    Bit depth                   : 16 bits
    Compression mode            : Lossy
    Stream size                 : 202 MiB (7%)
    Title                       : Ruso [CinemaniaHDD]
    Language                    : Russian
    Service kind                : Complete Main
    Default                     : No
    Forced                      : No

    Menu
    00:00:00.000                : en:Глава 1
    00:06:41.666                : en:Глава 2
    00:12:22.499                : en:Глава 3
    00:17:54.832                : en:Глава 4
    00:23:53.248                : en:Глава 5
    00:30:54.873                : en:Глава 6
    00:35:29.748                : en:Глава 7
    00:40:30.123                : en:Глава 8
    00:45:46.581                : en:Глава 9
    00:50:56.247                : en:Глава 10
    00:56:29.913                : en:Глава 11
    01:01:13.163                : en:Глава 12

     

  • Peso: 2.78 GiB

Sinopsis

Un grupo de amigos decide pasar un fin de semana juntos en una casa de campo, pero un accidente inesperado los obliga a detenerse en una finca extraña y remota. En este lugar abandonado y misterioso, se descubre una rara cámara antigua. Lentamente, la cámara los introduce en una cadena de acontecimientos místicos y trágicos que ninguno de ellos pudo haber visto venir. Cualquiera que se tome una foto con la cámara ve una foto que revela su muerte. Muchos de ellos pierden la vida de una manera insoportable, mientras se apresuran a resolver el misterio de la cámara.

Español Latino 5.1 – Ruso 5.1 WEB-DL

Ficha técnica

Video trailer de la película

Enlaces de descarga

Rip de Bluray

Descargar Una Foto Antes de Morir (2018) WEB-DL 1080p Latino




Aportes de DPeliculasHDmega la pass es:dpeliculashdmega.org Aportes de CinemaniaHD la pass es:cinemaniahdd.com
Guardado en : Suspenso , Terror

Películas relacionadas

  • La Máquina infernal (2022) WEB-DL 1080p Latino

    La Máquina infernal (2022) WEB-DL 1080p Latino

    2022
    La Máquina infernal (2022) WEB-DL 1080p Latino

    1h 47m 2022

    Descargar La Máquina infernal (2022) WEB-DL 1080p Latino. Un fan obsesivo saca de su escondite al solitario...

    Director: Andrew Hunt

    Género: Suspenso

    Actores: Rocco Salata

  • Borrego: Sal Del Camino (2022) HD 1080p Latino

    Borrego: Sal Del Camino (2022) HD 1080p Latino

    2022
    Borrego: Sal Del Camino (2022) HD 1080p Latino

    1h 42m 2022

    Descargar Borrego: Sal Del Camino (2022) HD 1080p Latino. Una joven botánica se traslada a un pequeño...

    Director: Jesse Harris

    Género: Crimen

    Actores: Olivia Trujillo

  • Borrego: Sal Del Camino (2022) REMUX 1080p Latino

    Borrego: Sal Del Camino (2022) REMUX 1080p Latino

    2022
    Borrego: Sal Del Camino (2022) REMUX 1080p Latino

    1h 42m 2022

    Descargar Borrego: Sal Del Camino (2022) REMUX 1080p Latino. Una joven botánica se traslada a un pequeño...

    Director: Jesse Harris

    Género: Crimen

    Actores: Olivia Trujillo

  • Tren Bala (2022) WEB-DL 4K UHD HDR Latino

    Tren Bala (2022) WEB-DL 4K UHD HDR Latino

    2022
    Tren Bala (2022) WEB-DL 4K UHD HDR Latino

    2h 7m 2022

    Descargar Tren Bala (2022) WEB-DL 4K UHD HDR Latino. El desafortunado asesino "Catarina" está decidido...

    Director: Paul Barry

    Género: 4K HDR

    Actores: Zooey Miyoshi

descargar Una Foto Antes de Morir (2018) WEB-DL 1080p Latino WEBDL 1080p gratis, Una Foto Antes de Morir (2018) WEB-DL 1080p Latino WEBDL mega 1 link, Una Foto Antes de Morir (2018) WEB-DL 1080p Latino WEBDL pelicula completa, descargar Una Foto Antes de Morir (2018) WEB-DL 1080p Latino WEBDL gratis en mega.

Una Foto Antes de Morir (2018) WEB-DL 1080p Latino pelicula full hd, Una Foto Antes de Morir (2018) WEB-DL 1080p Latino mega latino, Una Foto Antes de Morir (2018) WEB-DL 1080p Latino 4k latino, Una Foto Antes de Morir (2018) WEB-DL 1080p Latino pelicula completa, Una Foto Antes de Morir (2018) WEB-DL 1080p Latino descargar gratis, descargar Una Foto Antes de Morir (2018) WEB-DL 1080p Latino pelicula latino, Una Foto Antes de Morir (2018) WEB-DL 1080p Latino 1 link mega, Una Foto Antes de Morir (2018) WEB-DL 1080p Latino 1 link google drive, Una Foto Antes de Morir (2018) WEB-DL 1080p Latino hd 1080p latino.
Comentarios 0