×

¿Problemas para descargar con Mozilla, EDGE? Deshabilita la opción "Abrir vinculos en una pestaña nueva" tal como lo muestra ésta imagen.

Una Cenicienta moderna: Un deseo de Navidad (2019) REMUX 1080p Latino

465 vistas

Información de Una Cenicienta moderna: Un deseo de Navidad (2019) REMUX 1080p Latino

Datos de la película

  • Calidad: Full 1080p
  • Audio: Español Latino AC3 5.1 BLURAY - Ingles DTS 5.1 BLURAY
  • Subtitulos: Español Latino SRT- FORZADOS SRT
  • Resolución: 1920x1080p
  • Formato: MKV
  • Codec: H.264
  • Encoder: cinefiloCool
  • Mediainfo: Clic para Mostrar Datos Ver
  • La Nueva Cenicienta - Deseo de Navidad (2019) REMUX 1080p Latino-CMHDD.mkv
    Format                      : Matroska
    Format version              : Version 4
    File size                   : 14.3 GiB
    Duration                    : 1 h 25 min
    Overall bit rate mode       : Variable
    Overall bit rate            : 23.9 Mb/s
    Movie name                  : CinemaniaHDD.Net
    Encoded date                : UTC 2019-10-26 22:12:11
    Writing application         : mkvmerge v38.0.0 ('The Silent Type') 64-bit
    Writing library             : libebml v1.3.9 + libmatroska v1.5.2
    Attachments                 : CINEMANIAHD.png

    Video
    ID                          : 1
    Format                      : AVC
    Format/Info                 : Advanced Video Codec
    Format profile              : High@L4.1
    Format settings             : CABAC / 4 Ref Frames
    Format settings, CABAC      : Yes
    Format settings, ReFrames   : 4 frames
    Codec ID                    : V_MPEG4/ISO/AVC
    Duration                    : 1 h 25 min
    Bit rate mode               : Variable
    Bit rate                    : 19.9 Mb/s
    Maximum bit rate            : 40.0 Mb/s
    Width                       : 1 920 pixels
    Height                      : 1 080 pixels
    Display aspect ratio        : 16:9
    Frame rate mode             : Constant
    Frame rate                  : 23.976 (24000/1001) FPS
    Color space                 : YUV
    Chroma subsampling          : 4:2:0
    Bit depth                   : 8 bits
    Scan type                   : Progressive
    Bits/(Pixel*Frame)          : 0.400
    Stream size                 : 11.9 GiB (83%)
    Title                       : Full HD1080p [REMUX]
    Default                     : Yes
    Forced                      : No

    Audio #1
    ID                          : 2
    Format                      : AC-3
    Format/Info                 : Audio Coding 3
    Commercial name             : Dolby Digital
    Codec ID                    : A_AC3
    Duration                    : 1 h 25 min
    Bit rate mode               : Constant
    Bit rate                    : 640 kb/s
    Channel(s)                  : 6 channels
    Channel layout              : L R C LFE Ls Rs
    Sampling rate               : 48.0 kHz
    Frame rate                  : 31.250 FPS (1536 SPF)
    Bit depth                   : 16 bits
    Compression mode            : Lossy
    Stream size                 : 393 MiB (3%)
    Title                       : AC3_5.1_Bluray_Esp
    Language                    : Spanish
    Service kind                : Complete Main
    Default                     : Yes
    Forced                      : Yes

    Audio #2
    ID                          : 3
    Format                      : DTS XLL
    Format/Info                 : Digital Theater Systems
    Commercial name             : DTS-HD Master Audio
    Codec ID                    : A_DTS
    Duration                    : 1 h 25 min
    Bit rate mode               : Variable
    Bit rate                    : 3 324 kb/s
    Channel(s)                  : 6 channels
    Channel layout              : C L R Ls Rs LFE
    Sampling rate               : 48.0 kHz
    Frame rate                  : 93.750 FPS (512 SPF)
    Bit depth                   : 24 bits
    Compression mode            : Lossless
    Stream size                 : 2.00 GiB (14%)
    Title                       : DTS-HD_5.1_Bluray_Eng
    Language                    : English
    Default                     : No
    Forced                      : No

    Text #1
    ID                          : 4
    Format                      : UTF-8
    Codec ID                    : S_TEXT/UTF8
    Codec ID/Info               : UTF-8 Plain Text
    Duration                    : 1 h 16 min
    Bit rate                    : 11 b/s
    Count of elements           : 148
    Stream size                 : 6.19 KiB (0%)
    Title                       : Sub_Forzados
    Language                    : Spanish
    Default                     : Yes
    Forced                      : Yes

    Text #2
    ID                          : 5
    Format                      : UTF-8
    Codec ID                    : S_TEXT/UTF8
    Codec ID/Info               : UTF-8 Plain Text
    Duration                    : 1 h 22 min
    Bit rate                    : 84 b/s
    Count of elements           : 1510
    Stream size                 : 50.8 KiB (0%)
    Title                       : Sub_Esp
    Language                    : Spanish
    Default                     : No
    Forced                      : No

    Text #3
    ID                          : 6
    Format                      : PGS
    Muxing mode                 : zlib
    Codec ID                    : S_HDMV/PGS
    Codec ID/Info               : Picture based subtitle format used on BDs/HD-DVDs
    Duration                    : 1 h 22 min
    Bit rate                    : 52.9 kb/s
    Count of elements           : 3229
    Stream size                 : 31.1 MiB (0%)
    Title                       : Sub_Eng [PGS]
    Language                    : English
    Default                     : No
    Forced                      : No

    Menu
    00:00:00.000                : en:Chapter 01
    00:04:40.989                : en:Chapter 02
    00:10:25.541                : en:Chapter 03
    00:14:54.435                : en:Chapter 04
    00:20:09.791                : en:Chapter 05
    00:26:32.799                : en:Chapter 06
    00:34:53.633                : en:Chapter 07
    00:41:13.345                : en:Chapter 08
    00:48:05.924                : en:Chapter 09
    00:56:31.721                : en:Chapter 10
    01:01:30.645                : en:Chapter 11
    01:07:41.515                : en:Chapter 12
    01:13:45.921                : en:Chapter 13
    01:22:36.618                : en:Chapter 14

  • Peso: 14.3 GiB

Sinopsis

Descargar Una Cenicienta moderna: Un deseo de Navidad (2019) REMUX 1080p Latino. Kat es una aspirante a cantante y compositora que sueña con triunfar. Sin embargo, sus sueños están estancados por su realidad: una confabulada y cruel familia adoptiva y un trabajo desmoralizador trabajando como elfo cantante en la Tierra de Santa del multimillonario Terrence Wintergarden.

Ficha técnica

Video trailer de la película

Enlaces de descarga

Rip de Bluray

Descargar Una Cenicienta moderna: Un deseo de Navidad (2019) REMUX 1080p Latino




Aportes de DPeliculasHDmega la pass es:dpeliculashdmega.org Aportes de CinemaniaHD la pass es:cinemaniahdd.com
Guardado en : Comedia , Música , Remux , Romance

Películas relacionadas

  • Borrego: Sal Del Camino (2022) REMUX 1080p Latino

    Borrego: Sal Del Camino (2022) REMUX 1080p Latino

    2022
    Borrego: Sal Del Camino (2022) REMUX 1080p Latino

    1h 42m 2022

    Descargar Borrego: Sal Del Camino (2022) REMUX 1080p Latino. Una joven botánica se traslada a un pequeño...

    Director: Jesse Harris

    Género: Crimen

    Actores: Olivia Trujillo

  • Tren Bala (2022) WEB-DL 4K UHD HDR Latino

    Tren Bala (2022) WEB-DL 4K UHD HDR Latino

    2022
    Tren Bala (2022) WEB-DL 4K UHD HDR Latino

    2h 7m 2022

    Descargar Tren Bala (2022) WEB-DL 4K UHD HDR Latino. El desafortunado asesino "Catarina" está decidido...

    Director: Paul Barry

    Género: 4K HDR

    Actores: Zooey Miyoshi

  • Tren Bala (2022) AMZN WEB-DL 1080p Latino

    Tren Bala (2022) AMZN WEB-DL 1080p Latino

    2022
    Tren Bala (2022) AMZN WEB-DL 1080p Latino

    2h 7m 2022

    Descargar Tren Bala (2022) AMZN WEB-DL 1080p Latino. Cinco asesinos a sueldo se encuentran a bordo de...

    Director: Paul Barry

    Género: Acción

    Actores: Zooey Miyoshi

  • Rick y Morty (2022) Temporada 6 WEB-DL 1080p Latino

    Rick y Morty (2022) Temporada 6 WEB-DL 1080p Latino

    2013
    Rick y Morty (2022) Temporada 6 WEB-DL 1080p Latino

    0h 22m 2013

    Comedia animada que narra las aventuras de un científico loco Rick Sánchez, que regresa después de...

    Director: Justin Roiland

    Género: Action & Adventure

    Actores: Spencer Grammer

descargar Una Cenicienta moderna: Un deseo de Navidad (2019) REMUX 1080p Latino Full 1080p 1080p gratis, Una Cenicienta moderna: Un deseo de Navidad (2019) REMUX 1080p Latino Full 1080p mega 1 link, Una Cenicienta moderna: Un deseo de Navidad (2019) REMUX 1080p Latino Full 1080p pelicula completa, descargar Una Cenicienta moderna: Un deseo de Navidad (2019) REMUX 1080p Latino Full 1080p gratis en mega.

Una Cenicienta moderna: Un deseo de Navidad (2019) REMUX 1080p Latino pelicula full hd, Una Cenicienta moderna: Un deseo de Navidad (2019) REMUX 1080p Latino mega latino, Una Cenicienta moderna: Un deseo de Navidad (2019) REMUX 1080p Latino 4k latino, Una Cenicienta moderna: Un deseo de Navidad (2019) REMUX 1080p Latino pelicula completa, Una Cenicienta moderna: Un deseo de Navidad (2019) REMUX 1080p Latino descargar gratis, descargar Una Cenicienta moderna: Un deseo de Navidad (2019) REMUX 1080p Latino pelicula latino, Una Cenicienta moderna: Un deseo de Navidad (2019) REMUX 1080p Latino 1 link mega, Una Cenicienta moderna: Un deseo de Navidad (2019) REMUX 1080p Latino 1 link google drive, Una Cenicienta moderna: Un deseo de Navidad (2019) REMUX 1080p Latino hd 1080p latino.
Comentarios 0