×

¿Problemas para descargar con Mozilla, EDGE? Deshabilita la opción "Abrir vinculos en una pestaña nueva" tal como lo muestra ésta imagen.

Una Cenicienta moderna: Un deseo de Navidad (2019) 1080p Latino

592 vistas

Información de Una Cenicienta moderna: Un deseo de Navidad (2019) 1080p Latino

Datos de la película

  • Calidad: 1080p
  • Audio: Español Latino AC3 5.1 BLURAY - Ingles AC3 5.1 BLURAY
  • Subtitulos: Español Latino SRT- FORZADOS SRT
  • Resolución: 1920x1080
  • Formato: MKV
  • Codec: H.264
  • Encoder: cinemaniahdd
  • Mediainfo: Clic para Mostrar Datos Ver
  • A. Cinderella Story Christmas Wish (2019) 1080p Latino.mkv
    Format                      : Matroska
    Format version              : Version 4
    File size                   : 2.71 GiB
    Duration                    : 1 h 25 min
    Overall bit rate            : 4 516 kb/s
    Movie name                  : A. Cinderella Story Christmas.Wish (2019) 1080p Latino
    Encoded date                : UTC 2019-10-16 23:07:59
    Writing application         : mkvmerge v38.0.0 ('The Silent Type') 64-bit
    Writing library             : libebml v1.3.9 + libmatroska v1.5.2 / Lavf58.20.100

    Video
    ID                          : 1
    Format                      : AVC
    Format/Info                 : Advanced Video Codec
    Format profile              : High@L4.1
    Format settings             : CABAC / 4 Ref Frames
    Format settings, CABAC      : Yes
    Format settings, ReFrames   : 4 frames
    Codec ID                    : V_MPEG4/ISO/AVC
    Duration                    : 1 h 25 min
    Bit rate                    : 3 500 kb/s
    Width                       : 1 920 pixels
    Height                      : 1 080 pixels
    Display aspect ratio        : 16:9
    Frame rate mode             : Constant
    Frame rate                  : 23.976 (24000/1001) FPS
    Color space                 : YUV
    Chroma subsampling          : 4:2:0
    Bit depth                   : 8 bits
    Scan type                   : Progressive
    Bits/(Pixel*Frame)          : 0.070
    Stream size                 : 2.06 GiB (76%)
    Title                       : CinemaniaHDD
    Writing library             : x264 core 157 r2935 545de2f
    Encoding settings           : cabac=1 / ref=3 / deblock=1:0:0 / analyse=0x3:0x113 / me=hex / subme=7 / psy=1 / psy_rd=1.00:0.00 / mixed_ref=1 / me_range=16 / chroma_me=1 / trellis=1 / 8x8dct=1 / cqm=0 / deadzone=21,11 / fast_pskip=1 / chroma_qp_offset=-2 / threads=34 / lookahead_threads=5 / sliced_threads=0 / nr=0 / decimate=1 / interlaced=0 / bluray_compat=0 / constrained_intra=0 / bframes=3 / b_pyramid=2 / b_adapt=1 / b_bias=0 / direct=1 / weightb=1 / open_gop=0 / weightp=2 / keyint=240 / keyint_min=24 / scenecut=40 / intra_refresh=0 / rc_lookahead=40 / rc=abr / mbtree=1 / bitrate=3500 / ratetol=1.0 / qcomp=0.60 / qpmin=0 / qpmax=69 / qpstep=4 / vbv_maxrate=62500 / vbv_bufsize=78125 / nal_hrd=none / filler=0 / ip_ratio=1.40 / aq=1:1.00
    Default                     : Yes
    Forced                      : No
    Color range                 : Limited
    Color primaries             : BT.709
    Transfer characteristics    : BT.709
    Matrix coefficients         : BT.709

    Audio #1
    ID                          : 2
    Format                      : AC-3
    Format/Info                 : Audio Coding 3
    Commercial name             : Dolby Digital
    Codec ID                    : A_AC3
    Duration                    : 1 h 25 min
    Bit rate mode               : Constant
    Bit rate                    : 640 kb/s
    Channel(s)                  : 6 channels
    Channel layout              : L R C LFE Ls Rs
    Sampling rate               : 48.0 kHz
    Frame rate                  : 31.250 FPS (1536 SPF)
    Bit depth                   : 16 bits
    Compression mode            : Lossy
    Stream size                 : 393 MiB (14%)
    Title                       : Español latino [CinemaniaHDD]
    Language                    : Spanish
    Service kind                : Complete Main
    Default                     : Yes
    Forced                      : No

    Audio #2
    ID                          : 3
    Format                      : AC-3
    Format/Info                 : Audio Coding 3
    Commercial name             : Dolby Digital
    Codec ID                    : A_AC3
    Duration                    : 1 h 25 min
    Bit rate mode               : Constant
    Bit rate                    : 448 kb/s
    Channel(s)                  : 6 channels
    Channel layout              : L R C LFE Ls Rs
    Sampling rate               : 48.0 kHz
    Frame rate                  : 31.250 FPS (1536 SPF)
    Bit depth                   : 16 bits
    Compression mode            : Lossy
    Delay relative to video     : -5 ms
    Stream size                 : 275 MiB (10%)
    Title                       : Inglés [CinemaniaHDD]
    Language                    : English
    Service kind                : Complete Main
    Default                     : No
    Forced                      : No

    Text #1
    ID                          : 4
    Format                      : UTF-8
    Codec ID                    : S_TEXT/UTF8
    Codec ID/Info               : UTF-8 Plain Text
    Duration                    : 1 h 16 min
    Bit rate                    : 11 b/s
    Count of elements           : 148
    Stream size                 : 6.19 KiB (0%)
    Title                       : Forzados [CinemaniaHDD]
    Language                    : Spanish
    Default                     : Yes
    Forced                      : No

    Text #2
    ID                          : 5
    Format                      : UTF-8
    Codec ID                    : S_TEXT/UTF8
    Codec ID/Info               : UTF-8 Plain Text
    Duration                    : 1 h 22 min
    Bit rate                    : 84 b/s
    Count of elements           : 1510
    Stream size                 : 50.8 KiB (0%)
    Title                       : Español latino [CinemaniaHDD]
    Language                    : Spanish
    Default                     : No
    Forced                      : No

    Menu
    00:00:00.000                : :Chapter 1
    00:04:40.989                : :Chapter 2
    00:10:25.542                : :Chapter 3
    00:14:54.435                : :Chapter 4
    00:20:09.792                : :Chapter 5
    00:26:32.800                : :Chapter 6
    00:34:53.633                : :Chapter 7
    00:41:13.346                : :Chapter 8
    00:48:05.925                : :Chapter 9
    00:56:31.722                : :Chapter 10
    01:01:30.645                : :Chapter 11
    01:07:41.516                : :Chapter 12
    01:13:45.922                : :Chapter 13
    01:22:36.618                : :Chapter 14

  • Peso: 2.71 GiB

Sinopsis

¡Kat Emerson realmente podría usar un milagro navideño! La aspirante a cantante y compositora puede tener grandes sueños, pero tiene problemas aún mayores. Tratada como una sirvienta por su vanidosa madrastra y hermanastras egoístas, Kat se ve obligada a realizar un trabajo desmoralizador como elfo.

Ficha técnica

Video trailer de la película

Enlaces de descarga

Rip de Bluray

Descargar Una Cenicienta moderna: Un deseo de Navidad (2019) 1080p Latino




Aportes de DPeliculasHDmega la pass es:dpeliculashdmega.org Aportes de CinemaniaHD la pass es:cinemaniahdd.com
Guardado en : Comedia , HD 1080p , Música , Romance

Películas relacionadas

  • Zola (2020) HD 1080p Latino

    Zola (2020) HD 1080p Latino

    2020
    Zola (2020) HD 1080p Latino

    1h 26m 2020

    Descargar Zola (2020) HD 1080p Latino. Una camarera accede a acompañar a una bailarina exótica, su...

    Director: Sheri Davani

    Género: Comedia

    Actores: Ts Madison

  • Zola (2020) PLACEBO Full HD 1080p Latino

    Zola (2020) PLACEBO Full HD 1080p Latino

    2020
    Zola (2020) PLACEBO Full HD 1080p Latino

    1h 26m 2020

    Descargar Zola (2020) PLACEBO Full HD 1080p Latino. Una camarera accede a acompañar a una bailarina...

    Director: Sheri Davani

    Género: Comedia

    Actores: Ts Madison

  • Zola (2020) REMUX 1080p Latino

    Zola (2020) REMUX 1080p Latino

    2020
    Zola (2020) REMUX 1080p Latino

    1h 26m 2020

    Descargar Zola (2020) REMUX 1080p Latino. Una camarera accede a acompañar a una bailarina exótica,...

    Director: Sheri Davani

    Género: Comedia

    Actores: Ts Madison

descargar Una Cenicienta moderna: Un deseo de Navidad (2019) 1080p Latino 1080p 1080p gratis, Una Cenicienta moderna: Un deseo de Navidad (2019) 1080p Latino 1080p mega 1 link, Una Cenicienta moderna: Un deseo de Navidad (2019) 1080p Latino 1080p pelicula completa, descargar Una Cenicienta moderna: Un deseo de Navidad (2019) 1080p Latino 1080p gratis en mega.

Una Cenicienta moderna: Un deseo de Navidad (2019) 1080p Latino pelicula full hd, Una Cenicienta moderna: Un deseo de Navidad (2019) 1080p Latino mega latino, Una Cenicienta moderna: Un deseo de Navidad (2019) 1080p Latino 4k latino, Una Cenicienta moderna: Un deseo de Navidad (2019) 1080p Latino pelicula completa, Una Cenicienta moderna: Un deseo de Navidad (2019) 1080p Latino descargar gratis, descargar Una Cenicienta moderna: Un deseo de Navidad (2019) 1080p Latino pelicula latino, Una Cenicienta moderna: Un deseo de Navidad (2019) 1080p Latino 1 link mega, Una Cenicienta moderna: Un deseo de Navidad (2019) 1080p Latino 1 link google drive, Una Cenicienta moderna: Un deseo de Navidad (2019) 1080p Latino hd 1080p latino.
Comentarios 0