×

¿Problemas para descargar con Mozilla, EDGE? Deshabilita la opción "Abrir vinculos en una pestaña nueva" tal como lo muestra ésta imagen.

Un trueno en la oscuridad (2023) HD 1080p Latino

125 vistas

Información de Un trueno en la oscuridad (2023) HD 1080p Latino

Datos de la película

  • Calidad: 1080p
  • Audio: Español Latino AC3 5.1 WEB-DL - Ingles AC3 5.1 BLURAY
  • Subtitulos: Español Latino SRT- FORZADOS SRT
  • Resolución: 1920x1036p
  • Formato: MKV
  • Codec: H.264
  • Encoder: Melkor
  • Mediainfo: Clic para Mostrar Datos Ver
  • Rumble Through The Dark (2023) HD 1080p Latino.mkv
    Format                      : Matroska
    Format version              : Version 4
    File size                   : 3.45 GiB
    Duration                    : 1 h 56 min
    Overall bit rate            : 4 249 kb/s
    Movie name                  : Rumble Through The Dark (2023) CinemaniaHDD.Net
    Encoded date                : UTC 2024-02-01 04:31:04
    Writing application         : mkvmerge v56.1.0 ('My Friend') 64-bit
    Writing library             : libebml v1.4.2 + libmatroska v1.6.4
    Cover                       : Yes
    Attachments                 : cover.jpg / CINEMANIAHD.png
    Site                        : CinemaniaHDD.Net
    Uploader                    : Melkor

    Video
    ID                          : 1
    Format                      : AVC
    Format/Info                 : Advanced Video Codec
    Format profile              : High@L4.1
    Format settings             : CABAC / 4 Ref Frames
    Format settings, CABAC      : Yes
    Format settings, Reference  : 4 frames
    Codec ID                    : V_MPEG4/ISO/AVC
    Duration                    : 1 h 56 min
    Bit rate                    : 3 500 kb/s
    Width                       : 1 920 pixels
    Height                      : 1 036 pixels
    Display aspect ratio        : 1.85:1
    Frame rate mode             : Constant
    Frame rate                  : 23.976 (24000/1001) FPS
    Color space                 : YUV
    Chroma subsampling          : 4:2:0
    Bit depth                   : 8 bits
    Scan type                   : Progressive
    Bits/(Pixel*Frame)          : 0.073
    Stream size                 : 2.77 GiB (80%)
    Title                       : HD1080p [CinemaniaHDD]
    Writing library             : x264 core 163 r3059 b684ebe0
    Encoding settings           : cabac=1 / ref=4 / deblock=1:-1:-1 / analyse=0x3:0x133 / me=umh / subme=9 / psy=1 / psy_rd=1.00:0.15 / mixed_ref=1 / me_range=16 / chroma_me=1 / trellis=2 / 8x8dct=1 / cqm=0 / deadzone=21,11 / fast_pskip=1 / chroma_qp_offset=-3 / threads=24 / lookahead_threads=2 / sliced_threads=0 / nr=0 / decimate=1 / interlaced=0 / bluray_compat=0 / constrained_intra=0 / bframes=3 / b_pyramid=2 / b_adapt=2 / b_bias=0 / direct=3 / weightb=1 / open_gop=0 / weightp=2 / keyint=240 / keyint_min=24 / scenecut=40 / intra_refresh=0 / rc_lookahead=60 / rc=abr / mbtree=1 / bitrate=3500 / ratetol=1.0 / qcomp=0.60 / qpmin=0 / qpmax=69 / qpstep=4 / vbv_maxrate=62500 / vbv_bufsize=78125 / nal_hrd=none / filler=0 / ip_ratio=1.40 / aq=1:1.00
    Default                     : Yes
    Forced                      : Yes
    Color range                 : Limited
    Color primaries             : BT.709
    Transfer characteristics    : BT.709
    Matrix coefficients         : BT.709

    Audio #1
    ID                          : 2
    Format                      : AC-3
    Format/Info                 : Audio Coding 3
    Commercial name             : Dolby Digital
    Codec ID                    : A_AC3
    Duration                    : 1 h 56 min
    Bit rate mode               : Constant
    Bit rate                    : 384 kb/s
    Channel(s)                  : 6 channels
    Channel layout              : L R C LFE Ls Rs
    Sampling rate               : 48.0 kHz
    Frame rate                  : 31.250 FPS (1536 SPF)
    Compression mode            : Lossy
    Delay relative to video     : -5 ms
    Stream size                 : 319 MiB (9%)
    Title                       : Español Latino [CinemaniaHDD]
    Language                    : Spanish
    Service kind                : Complete Main
    Default                     : Yes
    Forced                      : Yes

    Audio #2
    ID                          : 3
    Format                      : AC-3
    Format/Info                 : Audio Coding 3
    Commercial name             : Dolby Digital
    Codec ID                    : A_AC3
    Duration                    : 1 h 56 min
    Bit rate mode               : Constant
    Bit rate                    : 448 kb/s
    Channel(s)                  : 6 channels
    Channel layout              : L R C LFE Ls Rs
    Sampling rate               : 48.0 kHz
    Frame rate                  : 31.250 FPS (1536 SPF)
    Compression mode            : Lossy
    Delay relative to video     : -5 ms
    Stream size                 : 372 MiB (11%)
    Title                       : Ingles [CinemaniaHDD]
    Language                    : English
    Service kind                : Complete Main
    Default                     : No
    Forced                      : No

    Text #1
    ID                          : 4
    Format                      : UTF-8
    Codec ID                    : S_TEXT/UTF8
    Codec ID/Info               : UTF-8 Plain Text
    Duration                    : 1 h 21 min
    Bit rate                    : 1 b/s
    Count of elements           : 23
    Stream size                 : 664 Bytes (0%)
    Title                       : Forzados-SRT [CinemaniaHDD]
    Language                    : Spanish
    Default                     : Yes
    Forced                      : Yes

    Text #2
    ID                          : 5
    Format                      : UTF-8
    Codec ID                    : S_TEXT/UTF8
    Codec ID/Info               : UTF-8 Plain Text
    Duration                    : 1 h 48 min
    Bit rate                    : 32 b/s
    Count of elements           : 913
    Stream size                 : 26.1 KiB (0%)
    Title                       : Español-SRT [CinemaniaHDD]
    Language                    : Spanish
    Default                     : No
    Forced                      : No

    Menu
    00:00:00.000                : Chapter 01
    00:08:15.495                : Chapter 02
    00:16:35.995                : Chapter 03
    00:27:14.633                : Chapter 04
    00:35:20.118                : Chapter 05
    00:42:12.530                : Chapter 06
    00:48:35.913                : Chapter 07
    00:54:18.255                : Chapter 08
    01:00:46.643                : Chapter 09
    01:08:36.112                : Chapter 10
    01:16:50.606                : Chapter 11
    01:23:57.032                : Chapter 12
    01:32:46.561                : Chapter 13
    01:38:15.890                : Chapter 14
    01:44:50.284                : Chapter 15
    01:50:36.630                : Chapter 16

  • Peso: 3.45 GiB

Sinopsis

Descargar Un trueno en la oscuridad (2023) HD 1080p Latino. Ambientado en el oscuro paisaje del delta del Mississippi, donde un ex luchador a puño limpio debe ganar una última pelea para pagar sus deudas con el jefe de la mafia local y salvar el hogar de su infancia; lo que está en juego es nada menos que vida o muerte.

Ficha técnica

Video trailer de la película

Enlaces de descarga

Rip de Bluray

Descargar Un trueno en la oscuridad (2023) HD 1080p Latino




Aportes de DPeliculasHDmega la pass es:dpeliculashdmega.org Aportes de CinemaniaHD la pass es:cinemaniahdd.com Aportes recientes:cinemaniahdd.net
Guardado en : Acción , HD 1080p , Suspenso

Películas relacionadas

  • Wolves (2022) AMZN WEB-DL 1080p Latino

    Wolves (2022) AMZN WEB-DL 1080p Latino

    2022
    Wolves (2022) AMZN WEB-DL 1080p Latino

    1h 43m 2022

    Un joven solitario se depara con una serie de crímenes sin resolver, que involucran animales mutilados...

    Director: Danny Dunlop

    Género: Crimen

    Actores: Rod Keith

descargar Un trueno en la oscuridad (2023) HD 1080p Latino 1080p 1080p gratis, Un trueno en la oscuridad (2023) HD 1080p Latino 1080p mega 1 link, Un trueno en la oscuridad (2023) HD 1080p Latino 1080p pelicula completa, descargar Un trueno en la oscuridad (2023) HD 1080p Latino 1080p gratis en mega.

Un trueno en la oscuridad (2023) HD 1080p Latino pelicula full hd, Un trueno en la oscuridad (2023) HD 1080p Latino mega latino, Un trueno en la oscuridad (2023) HD 1080p Latino 4k latino, Un trueno en la oscuridad (2023) HD 1080p Latino pelicula completa, Un trueno en la oscuridad (2023) HD 1080p Latino descargar gratis, descargar Un trueno en la oscuridad (2023) HD 1080p Latino pelicula latino, Un trueno en la oscuridad (2023) HD 1080p Latino 1 link mega, Un trueno en la oscuridad (2023) HD 1080p Latino 1 link google drive, Un trueno en la oscuridad (2023) HD 1080p Latino hd 1080p latino.
Comentarios 0