×

¿Problemas para descargar con Mozilla, EDGE? Deshabilita la opción "Abrir vinculos en una pestaña nueva" tal como lo muestra ésta imagen.

Un rescate de huevitos (2021) WEB-DL 1080p Latino

151 vistas

Información de Un rescate de huevitos (2021) WEB-DL 1080p Latino

Datos de la película

  • Calidad: 1080p
  • Audio: Español Latino AC3 2.0
  • Subtitulos: No
  • Resolución: 1920x1080
  • Formato: MKV
  • Codec: H.264
  • Encoder: cinemaniahdd
  • Mediainfo: Clic para Mostrar Datos Ver
  • Un rescate de huevitos (2021) WEB-DL 1080p Latino [CNMNHDD].mkv
    Format                      : Matroska
    Format version              : Version 4
    File size                   : 2.31 GiB
    Duration                    : 1 h 29 min
    Overall bit rate            : 3 712 kb/s
    Movie name                  : Un rescate de huevitos (2021) - CinemaniaHDD.Net
    Encoded date                : UTC 2021-08-19 04:21:38
    Writing application         : mkvmerge v20.0.0 ('I Am The Sun') 64-bit
    Writing library             : libebml v1.3.5 + libmatroska v1.4.8

    Video
    ID                          : 1
    Format                      : AVC
    Format/Info                 : Advanced Video Codec
    Format profile              : High@L4.1
    Format settings             : CABAC / 4 Ref Frames
    Format settings, CABAC      : Yes
    Format settings, Reference  : 4 frames
    Codec ID                    : V_MPEG4/ISO/AVC
    Duration                    : 1 h 29 min
    Bit rate                    : 3 454 kb/s
    Width                       : 1 920 pixels
    Height                      : 1 080 pixels
    Display aspect ratio        : 16:9
    Frame rate mode             : Constant
    Frame rate                  : 23.976 (24000/1001) FPS
    Color space                 : YUV
    Chroma subsampling          : 4:2:0
    Bit depth                   : 8 bits
    Scan type                   : Progressive
    Bits/(Pixel*Frame)          : 0.069
    Stream size                 : 2.15 GiB (93%)
    Title                       : CinemaniaHDD
    Language                    : Spanish
    Default                     : Yes
    Forced                      : No

    Audio
    ID                          : 2
    Format                      : AC-3
    Format/Info                 : Audio Coding 3
    Commercial name             : Dolby Digital
    Codec ID                    : A_AC3
    Duration                    : 1 h 29 min
    Bit rate mode               : Constant
    Bit rate                    : 256 kb/s
    Channel(s)                  : 2 channels
    Channel layout              : L R
    Sampling rate               : 44.1 kHz
    Frame rate                  : 28.711 FPS (1536 SPF)
    Compression mode            : Lossy
    Delay relative to video     : -16 ms
    Stream size                 : 163 MiB (7%)
    Title                       : Español latino [CinemaniaHDD]
    Language                    : Spanish
    Service kind                : Complete Main
    Default                     : Yes
    Forced                      : No

     

  • Peso: 2.31 GiB

Sinopsis

Toto y Di son los padres de dos hermosos huevos: Uly y Max.

Ficha técnica

Video trailer de la película

Enlaces de descarga

Rip de Bluray

Descargar Un rescate de huevitos (2021) WEB-DL 1080p Latino




Aportes de DPeliculasHDmega la pass es:dpeliculashdmega.org Aportes de CinemaniaHD la pass es:cinemaniahdd.com
Guardado en : Animación , Comedia

Películas relacionadas

  • Tren Bala (2022) WEB-DL 4K UHD HDR Latino

    Tren Bala (2022) WEB-DL 4K UHD HDR Latino

    2022
    Tren Bala (2022) WEB-DL 4K UHD HDR Latino

    2h 7m 2022

    Descargar Tren Bala (2022) WEB-DL 4K UHD HDR Latino. El desafortunado asesino "Catarina" está decidido...

    Director: Paul Barry

    Género: 4K HDR

    Actores: Zooey Miyoshi

  • Tren Bala (2022) AMZN WEB-DL 1080p Latino

    Tren Bala (2022) AMZN WEB-DL 1080p Latino

    2022
    Tren Bala (2022) AMZN WEB-DL 1080p Latino

    2h 7m 2022

    Descargar Tren Bala (2022) AMZN WEB-DL 1080p Latino. Cinco asesinos a sueldo se encuentran a bordo de...

    Director: Paul Barry

    Género: Acción

    Actores: Zooey Miyoshi

  • Rick y Morty (2022) Temporada 6 WEB-DL 1080p Latino

    Rick y Morty (2022) Temporada 6 WEB-DL 1080p Latino

    2013
    Rick y Morty (2022) Temporada 6 WEB-DL 1080p Latino

    0h 22m 2013

    Comedia animada que narra las aventuras de un científico loco Rick Sánchez, que regresa después de...

    Director: Justin Roiland

    Género: Action & Adventure

    Actores: Spencer Grammer

descargar Un rescate de huevitos (2021) WEB-DL 1080p Latino 1080p 1080p gratis, Un rescate de huevitos (2021) WEB-DL 1080p Latino 1080p mega 1 link, Un rescate de huevitos (2021) WEB-DL 1080p Latino 1080p pelicula completa, descargar Un rescate de huevitos (2021) WEB-DL 1080p Latino 1080p gratis en mega.

Un rescate de huevitos (2021) WEB-DL 1080p Latino pelicula full hd, Un rescate de huevitos (2021) WEB-DL 1080p Latino mega latino, Un rescate de huevitos (2021) WEB-DL 1080p Latino 4k latino, Un rescate de huevitos (2021) WEB-DL 1080p Latino pelicula completa, Un rescate de huevitos (2021) WEB-DL 1080p Latino descargar gratis, descargar Un rescate de huevitos (2021) WEB-DL 1080p Latino pelicula latino, Un rescate de huevitos (2021) WEB-DL 1080p Latino 1 link mega, Un rescate de huevitos (2021) WEB-DL 1080p Latino 1 link google drive, Un rescate de huevitos (2021) WEB-DL 1080p Latino hd 1080p latino.
Comentarios 0