×

¿Problemas para descargar con Mozilla, EDGE? Deshabilita la opción "Abrir vinculos en una pestaña nueva" tal como lo muestra ésta imagen.

Un príncipe en Nueva York 2 (2021) PLACEBO Full HD 1080p Latino

495 vistas

Información de Un príncipe en Nueva York 2 (2021) PLACEBO Full HD 1080p Latino

Datos de la película

  • Calidad: Full 1080p
  • Audio: Español Latino AC3 5.1 BLURAY - Ingles DTS 5.1 BLURAY
  • Subtitulos: Español Latino PGS - Ingles PGS
  • Resolución: 1920x1080p
  • Formato: MKV
  • Codec: H.264
  • Encoder: Melkor
  • Mediainfo: Clic para Mostrar Datos Ver
  • Un Princpe En Nueva York 2 (2021) PLACEBO 1080p Latino.mkv
    Format                      : Matroska
    Format version              : Version 4
    File size                   : 6.62 GiB
    Duration                    : 1 h 48 min
    Overall bit rate            : 8 730 kb/s
    Movie name                  : Coming 2 America (2021) CinemaniaHDD.Net
    Encoded date                : UTC 2022-03-10 07:56:12
    Writing application         : mkvmerge v56.1.0 ('My Friend') 64-bit
    Writing library             : libebml v1.4.2 + libmatroska v1.6.4
    Attachments                 : CINEMANIAHD.png

    Video
    ID                          : 1
    Format                      : AVC
    Format/Info                 : Advanced Video Codec
    Format profile              : High@L4.1
    Format settings             : CABAC / 4 Ref Frames
    Format settings, CABAC      : Yes
    Format settings, Reference  : 4 frames
    Codec ID                    : V_MPEG4/ISO/AVC
    Duration                    : 1 h 48 min
    Bit rate                    : 6 532 kb/s
    Width                       : 1 920 pixels
    Height                      : 1 080 pixels
    Display aspect ratio        : 16:9
    Frame rate mode             : Constant
    Frame rate                  : 23.976 (24000/1001) FPS
    Color space                 : YUV
    Chroma subsampling          : 4:2:0
    Bit depth                   : 8 bits
    Scan type                   : Progressive
    Bits/(Pixel*Frame)          : 0.131
    Stream size                 : 4.95 GiB (75%)
    Title                       : Full HD1080p [CinemaniaHDD]
    Writing library             : x264 core 163 r3059 b684ebe0
    Encoding settings           : cabac=1 / ref=4 / deblock=1:0:0 / analyse=0x3:0x133 / me=tesa / subme=11 / psy=1 / psy_rd=1.00:0.00 / mixed_ref=1 / me_range=24 / chroma_me=1 / trellis=2 / 8x8dct=1 / cqm=0 / deadzone=21,11 / fast_pskip=0 / chroma_qp_offset=-2 / threads=24 / lookahead_threads=6 / sliced_threads=0 / nr=0 / decimate=1 / interlaced=0 / bluray_compat=0 / constrained_intra=0 / bframes=16 / b_pyramid=2 / b_adapt=2 / b_bias=0 / direct=3 / weightb=1 / open_gop=0 / weightp=2 / keyint=240 / keyint_min=24 / scenecut=40 / intra_refresh=0 / rc_lookahead=60 / rc=crf / mbtree=1 / crf=19.0 / qcomp=0.60 / qpmin=0 / qpmax=69 / qpstep=4 / vbv_maxrate=62500 / vbv_bufsize=78125 / crf_max=0.0 / nal_hrd=none / filler=0 / ip_ratio=1.40 / aq=1:1.00
    Default                     : Yes
    Forced                      : Yes
    Color range                 : Limited
    Color primaries             : BT.709
    Transfer characteristics    : BT.709
    Matrix coefficients         : BT.709

    Audio #1
    ID                          : 2
    ID in the original source m : 4356 (0x1104)
    Format                      : AC-3
    Format/Info                 : Audio Coding 3
    Commercial name             : Dolby Digital
    Codec ID                    : A_AC3
    Duration                    : 1 h 48 min
    Bit rate mode               : Constant
    Bit rate                    : 640 kb/s
    Channel(s)                  : 6 channels
    Channel layout              : L R C LFE Ls Rs
    Sampling rate               : 48.0 kHz
    Frame rate                  : 31.250 FPS (1536 SPF)
    Compression mode            : Lossy
    Stream size                 : 497 MiB (7%)
    Title                       : Español Latino [CinemaniaHDD]
    Language                    : Spanish
    Service kind                : Complete Main
    Default                     : Yes
    Forced                      : Yes
    Original source medium      : Blu-ray

    Audio #2
    ID                          : 3
    Format                      : DTS
    Format/Info                 : Digital Theater Systems
    Codec ID                    : A_DTS
    Duration                    : 1 h 48 min
    Bit rate mode               : Constant
    Bit rate                    : 1 509 kb/s
    Channel(s)                  : 6 channels
    Channel layout              : C L R Ls Rs LFE
    Sampling rate               : 48.0 kHz
    Frame rate                  : 93.750 FPS (512 SPF)
    Bit depth                   : 24 bits
    Compression mode            : Lossy
    Stream size                 : 1.14 GiB (17%)
    Title                       : Ingles [CinemaniaHDD]
    Language                    : English
    Default                     : No
    Forced                      : No

    Text #1
    ID                          : 4
    Format                      : PGS
    Muxing mode                 : zlib
    Codec ID                    : S_HDMV/PGS
    Codec ID/Info               : Picture based subtitle format used on BDs/HD-DVDs
    Duration                    : 1 h 47 min
    Bit rate                    : 244 b/s
    Count of elements           : 16
    Stream size                 : 192 KiB (0%)
    Title                       : Forzados-PGS [CinemaniaHDD]
    Language                    : Spanish
    Default                     : No
    Forced                      : No

    Text #2
    ID                          : 5
    ID in the original source m : 4613 (0x1205)
    Format                      : PGS
    Muxing mode                 : zlib
    Codec ID                    : S_HDMV/PGS
    Codec ID/Info               : Picture based subtitle format used on BDs/HD-DVDs
    Duration                    : 1 h 47 min
    Bit rate                    : 41.2 kb/s
    Count of elements           : 3050
    Stream size                 : 31.7 MiB (0%)
    Title                       : Español-PGS [CinemaniaHDD]
    Language                    : Spanish
    Default                     : No
    Forced                      : No
    Original source medium      : Blu-ray

    Text #3
    ID                          : 6
    ID in the original source m : 4608 (0x1200)
    Format                      : PGS
    Muxing mode                 : zlib
    Codec ID                    : S_HDMV/PGS
    Codec ID/Info               : Picture based subtitle format used on BDs/HD-DVDs
    Duration                    : 1 h 45 min
    Bit rate                    : 50.8 kb/s
    Count of elements           : 3422
    Stream size                 : 38.4 MiB (1%)
    Title                       : Ingles-PGS [CinemaniaHDD]
    Language                    : English
    Default                     : No
    Forced                      : No
    Original source medium      : Blu-ray

    Text #4
    ID                          : 7
    Format                      : UTF-8
    Codec ID                    : S_TEXT/UTF8
    Codec ID/Info               : UTF-8 Plain Text
    Duration                    : 1 h 24 min
    Bit rate                    : 0 b/s
    Count of elements           : 8
    Stream size                 : 308 Bytes (0%)
    Title                       : Forzados-SRT [CinemaniaHDD]
    Language                    : Spanish
    Default                     : Yes
    Forced                      : Yes

    Text #5
    ID                          : 8
    Format                      : UTF-8
    Codec ID                    : S_TEXT/UTF8
    Codec ID/Info               : UTF-8 Plain Text
    Duration                    : 1 h 47 min
    Bit rate                    : 66 b/s
    Count of elements           : 1793
    Stream size                 : 52.5 KiB (0%)
    Title                       : Español-SRT [CinemaniaHDD]
    Language                    : Spanish
    Default                     : No
    Forced                      : No

    Menu
    00:00:00.000                : Chapter 01
    00:09:17.348                : Chapter 02
    00:18:37.658                : Chapter 03
    00:28:05.308                : Chapter 04
    00:35:02.683                : Chapter 05
    00:40:27.842                : Chapter 06
    00:46:53.560                : Chapter 07
    00:53:20.155                : Chapter 08
    01:01:01.366                : Chapter 09
    01:07:03.269                : Chapter 10
    01:13:32.449                : Chapter 11
    01:20:48.718                : Chapter 12
    01:27:33.539                : Chapter 13
    01:33:25.057                : Chapter 14
    01:41:37.424                : Chapter 15

  • Peso: 6.62 GiB

Sinopsis

Descargar Un príncipe en Nueva York 2 (2021) PLACEBO Full HD 1080p Latino. ¡Akeem y Senmi han vuelto! Desde el exuberante reino de Zamunda, el recién coronado rey Akeem (Eddie Murphy) y su leal confidente Semmi (Arsenio Hall) emprenden una nueva y divertidísima aventura que les hará atravesar el mundo, desde su gran país en África hasta el barrio de Queens, en Nueva York, donde todo empezó.

Ficha técnica

Video trailer de la película

Enlaces de descarga

Rip de Bluray

Descargar Un príncipe en Nueva York 2 (2021) PLACEBO Full HD 1080p Latino




Aportes de DPeliculasHDmega la pass es:dpeliculashdmega.org Aportes de CinemaniaHD la pass es:cinemaniahdd.com

Películas relacionadas

descargar Un príncipe en Nueva York 2 (2021) PLACEBO Full HD 1080p Latino Full 1080p 1080p gratis, Un príncipe en Nueva York 2 (2021) PLACEBO Full HD 1080p Latino Full 1080p mega 1 link, Un príncipe en Nueva York 2 (2021) PLACEBO Full HD 1080p Latino Full 1080p pelicula completa, descargar Un príncipe en Nueva York 2 (2021) PLACEBO Full HD 1080p Latino Full 1080p gratis en mega.

Un príncipe en Nueva York 2 (2021) PLACEBO Full HD 1080p Latino pelicula full hd, Un príncipe en Nueva York 2 (2021) PLACEBO Full HD 1080p Latino mega latino, Un príncipe en Nueva York 2 (2021) PLACEBO Full HD 1080p Latino 4k latino, Un príncipe en Nueva York 2 (2021) PLACEBO Full HD 1080p Latino pelicula completa, Un príncipe en Nueva York 2 (2021) PLACEBO Full HD 1080p Latino descargar gratis, descargar Un príncipe en Nueva York 2 (2021) PLACEBO Full HD 1080p Latino pelicula latino, Un príncipe en Nueva York 2 (2021) PLACEBO Full HD 1080p Latino 1 link mega, Un príncipe en Nueva York 2 (2021) PLACEBO Full HD 1080p Latino 1 link google drive, Un príncipe en Nueva York 2 (2021) PLACEBO Full HD 1080p Latino hd 1080p latino.
Comentarios 0