×

¿Problemas para descargar con Mozilla, EDGE? Deshabilita la opción "Abrir vinculos en una pestaña nueva" tal como lo muestra ésta imagen.

Un príncipe en Nueva York 2 (2021) AMZN 4K-WEB-DL 2160p Latino

403 vistas

Información de Un príncipe en Nueva York 2 (2021) AMZN 4K-WEB-DL 2160p Latino

Datos de la película

  • Calidad: 4K HDR
  • Audio: Español Latino E-AC3 5.1 AMAZON - Ingles E-AC3 5.1 AMAZON
  • Subtitulos: Español Latino SRT- FORZADOS SRT
  • Resolución: 3840x1920
  • Formato: MKV
  • Codec: H.264
  • Encoder: cinemaniahdd
  • Mediainfo: Clic para Mostrar Datos Ver
  • Un príncipe en Nueva York 2 (2021) AMZN 4K-WEB-DL 2160p Latino [CNMNHDD] .mkv
    Format                      : Matroska
    Format version              : Version 4
    File size                   : 12.8 GiB
    Duration                    : 1 h 48 min
    Overall bit rate            : 16.9 Mb/s
    Movie name                  : Un príncipe en Nueva York 2 (2021) 4K - CinemaniaHDD.Net
    Encoded date                : UTC 2021-03-05 01:37:10
    Writing application         : mkvmerge v51.0.0 ('I Wish') 64-bit
    Writing library             : libebml v1.4.0 + libmatroska v1.6.2

    Video
    ID                          : 1
    Format                      : HEVC
    Format/Info                 : High Efficiency Video Coding
    Format profile              : Main 10@L5@Main
    HDR format                  : SMPTE ST 2094 App 4, Version 1, HDR10+ Profile B compatible
    Codec ID                    : V_MPEGH/ISO/HEVC
    Duration                    : 1 h 48 min
    Bit rate                    : 15.0 Mb/s
    Width                       : 3 840 pixels
    Height                      : 1 920 pixels
    Display aspect ratio        : 2.000
    Frame rate mode             : Constant
    Frame rate                  : 23.976 (24000/1001) FPS
    Color space                 : YUV
    Chroma subsampling          : 4:2:0
    Bit depth                   : 10 bits
    Bits/(Pixel*Frame)          : 0.085
    Stream size                 : 11.3 GiB (89%)
    Title                       : CinemaniaHDD
    Default                     : Yes
    Forced                      : No
    Color range                 : Limited
    Color primaries             : BT.2020
    Transfer characteristics    : PQ
    Matrix coefficients         : BT.2020 non-constant
    Mastering display color pri : Display P3
    Mastering display luminance : min: 0.0001 cd/m2, max: 1000 cd/m2
    Maximum Content Light Level : 1204 cd/m2
    Maximum Frame-Average Light : 164 cd/m2

    Audio #1
    ID                          : 2
    Format                      : AC-3
    Format/Info                 : Audio Coding 3
    Commercial name             : Dolby Digital
    Codec ID                    : A_AC3
    Duration                    : 1 h 48 min
    Bit rate mode               : Constant
    Bit rate                    : 640 kb/s
    Channel(s)                  : 6 channels
    Channel layout              : L R C LFE Ls Rs
    Sampling rate               : 48.0 kHz
    Frame rate                  : 31.250 FPS (1536 SPF)
    Compression mode            : Lossy
    Stream size                 : 497 MiB (4%)
    Title                       : Español latino - AC3 [CinemaniaHDD]
    Language                    : Spanish
    Service kind                : Complete Main
    Default                     : Yes
    Forced                      : No

    Audio #2
    ID                          : 3
    Format                      : E-AC-3
    Format/Info                 : Enhanced AC-3
    Commercial name             : Dolby Digital Plus
    Codec ID                    : A_EAC3
    Duration                    : 1 h 48 min
    Bit rate mode               : Constant
    Bit rate                    : 640 kb/s
    Channel(s)                  : 6 channels
    Channel layout              : L R C LFE Ls Rs
    Sampling rate               : 48.0 kHz
    Frame rate                  : 31.250 FPS (1536 SPF)
    Compression mode            : Lossy
    Stream size                 : 497 MiB (4%)
    Title                       : Español latino - E-AC3 [CinemaniaHDD]
    Language                    : Spanish
    Service kind                : Complete Main
    Default                     : No
    Forced                      : No

    Audio #3
    ID                          : 4
    Format                      : E-AC-3
    Format/Info                 : Enhanced AC-3
    Commercial name             : Dolby Digital Plus
    Codec ID                    : A_EAC3
    Duration                    : 1 h 48 min
    Bit rate mode               : Constant
    Bit rate                    : 640 kb/s
    Channel(s)                  : 6 channels
    Channel layout              : L R C LFE Ls Rs
    Sampling rate               : 48.0 kHz
    Frame rate                  : 31.250 FPS (1536 SPF)
    Compression mode            : Lossy
    Stream size                 : 497 MiB (4%)
    Title                       : Inglés - E-AC3 [CinemaniaHDD]
    Language                    : English
    Service kind                : Complete Main
    Default                     : No
    Forced                      : No

    Text #1
    ID                          : 5
    Format                      : UTF-8
    Codec ID                    : S_TEXT/UTF8
    Codec ID/Info               : UTF-8 Plain Text
    Duration                    : 1 h 44 min
    Bit rate                    : 5 b/s
    Count of elements           : 148
    Stream size                 : 3.86 KiB (0%)
    Title                       : Forzados [CinemaniaHDD]
    Language                    : Spanish
    Default                     : Yes
    Forced                      : Yes

    Text #2
    ID                          : 6
    Format                      : UTF-8
    Codec ID                    : S_TEXT/UTF8
    Codec ID/Info               : UTF-8 Plain Text
    Duration                    : 1 h 47 min
    Bit rate                    : 64 b/s
    Count of elements           : 1803
    Stream size                 : 50.9 KiB (0%)
    Title                       : Español latino [CinemaniaHDD]
    Language                    : Spanish
    Default                     : No
    Forced                      : No

    Text #3
    ID                          : 7
    Format                      : UTF-8
    Codec ID                    : S_TEXT/UTF8
    Codec ID/Info               : UTF-8 Plain Text
    Duration                    : 1 h 47 min
    Bit rate                    : 87 b/s
    Count of elements           : 2256
    Stream size                 : 68.9 KiB (0%)
    Title                       : Inglés [CinemaniaHDD]
    Language                    : English
    Default                     : No
    Forced                      : No

    Menu
    00:00:00.000                : en:Amazon Original
    00:00:06.000                : en:Studio Logo
    00:00:28.000                : en:Scene 3
    00:02:26.000                : en:Scene 4
    00:03:39.000                : en:Scene 5
    00:05:24.000                : en:Scene 6
    00:09:15.000                : en:Scene 7
    00:11:03.000                : en:Scene 8
    00:13:03.000                : en:Scene 9
    00:14:57.000                : en:Scene 10
    00:18:38.000                : en:Scene 11
    00:20:03.000                : en:Scene 12
    00:23:02.000                : en:Scene 13
    00:26:39.000                : en:Scene 14
    00:28:06.000                : en:Scene 15
    00:31:51.000                : en:Scene 16
    00:34:12.000                : en:Scene 17
    00:35:01.000                : en:Scene 18
    00:36:14.000                : en:Scene 19
    00:37:33.000                : en:Scene 20
    00:40:02.000                : en:Scene 21
    00:46:54.000                : en:Scene 22
    00:47:23.000                : en:Scene 23
    00:49:55.000                : en:Scene 24
    00:53:20.000                : en:Scene 25
    00:56:50.000                : en:Scene 26
    01:04:37.000                : en:Scene 27
    01:07:03.000                : en:Scene 28
    01:10:55.000                : en:Scene 29
    01:18:22.000                : en:Scene 30
    01:20:49.000                : en:Scene 31
    01:23:55.000                : en:Scene 32
    01:25:10.000                : en:Scene 33
    01:25:37.000                : en:Scene 34
    01:26:17.000                : en:Scene 35
    01:27:34.000                : en:Scene 36
    01:28:29.000                : en:Scene 37
    01:29:52.000                : en:Scene 38
    01:33:25.000                : en:Scene 39
    01:34:47.000                : en:Scene 40
    01:41:37.000                : en:End Credits

     

  • Peso: 12.8 GiB

Sinopsis

Akeem se entera de que tiene un hijo perdido hace mucho tiempo en los Estados Unidos y debe regresar a Estados Unidos para conocer al improbable heredero al trono de Zamunda. Una secuela de la comedia de 1988 ‘Coming to America’.

Ficha técnica

Video trailer de la película

Enlaces de descarga

Rip de Bluray

Descargar Un príncipe en Nueva York 2 (2021) AMZN 4K-WEB-DL 2160p Latino




Aportes de DPeliculasHDmega la pass es:dpeliculashdmega.org Aportes de CinemaniaHD la pass es:cinemaniahdd.com
Guardado en : 4K HDR , 4K UHD , Comedia

Películas relacionadas

descargar Un príncipe en Nueva York 2 (2021) AMZN 4K-WEB-DL 2160p Latino 4K HDR 1080p gratis, Un príncipe en Nueva York 2 (2021) AMZN 4K-WEB-DL 2160p Latino 4K HDR mega 1 link, Un príncipe en Nueva York 2 (2021) AMZN 4K-WEB-DL 2160p Latino 4K HDR pelicula completa, descargar Un príncipe en Nueva York 2 (2021) AMZN 4K-WEB-DL 2160p Latino 4K HDR gratis en mega.

Un príncipe en Nueva York 2 (2021) AMZN 4K-WEB-DL 2160p Latino pelicula full hd, Un príncipe en Nueva York 2 (2021) AMZN 4K-WEB-DL 2160p Latino mega latino, Un príncipe en Nueva York 2 (2021) AMZN 4K-WEB-DL 2160p Latino 4k latino, Un príncipe en Nueva York 2 (2021) AMZN 4K-WEB-DL 2160p Latino pelicula completa, Un príncipe en Nueva York 2 (2021) AMZN 4K-WEB-DL 2160p Latino descargar gratis, descargar Un príncipe en Nueva York 2 (2021) AMZN 4K-WEB-DL 2160p Latino pelicula latino, Un príncipe en Nueva York 2 (2021) AMZN 4K-WEB-DL 2160p Latino 1 link mega, Un príncipe en Nueva York 2 (2021) AMZN 4K-WEB-DL 2160p Latino 1 link google drive, Un príncipe en Nueva York 2 (2021) AMZN 4K-WEB-DL 2160p Latino hd 1080p latino.
Comentarios 0