×

¿Problemas para descargar con Mozilla, EDGE? Deshabilita la opción "Abrir vinculos en una pestaña nueva" tal como lo muestra ésta imagen.

Un Plan Irresistible (2020) REMUX 1080p Latino

281 vistas

Información de Un Plan Irresistible (2020) REMUX 1080p Latino

Datos de la película

  • Calidad: Full 1080p
  • Audio: Español Latino AC3 2.0 iTUNES - Ingles DTS 5.1 BURAY
  • Subtitulos: Español Latino PGS - Ingles PGS
  • Resolución: 1920x1080p
  • Formato: MKV
  • Codec: H.264
  • Encoder: Melkor
  • Mediainfo: Clic para Mostrar Datos Ver
  • Un Plan Irresistible (2020) REMUX 1080p Latino.mkv
    Format                      : Matroska
    Format version              : Version 4
    File size                   : 26.7 GiB
    Duration                    : 1 h 41 min
    Overall bit rate mode       : Variable
    Overall bit rate            : 37.7 Mb/s
    Movie name                  : Irresistible (2020) CinemaniaHDD.Net
    Encoded date                : UTC 2020-09-05 01:18:13
    Writing application         : mkvmerge v46.0.0 ('No Deeper Escape') 64-bit
    Writing library             : libebml v1.3.10 + libmatroska v1.5.2
    Attachments                 : CINEMANIAHD.png

    Video
    ID                          : 1
    Format                      : AVC
    Format/Info                 : Advanced Video Codec
    Format profile              : High@L4.1
    Format settings             : CABAC / 2 Ref Frames
    Format settings, CABAC      : Yes
    Format settings, Reference  : 2 frames
    Format settings, GOP        : M=1, N=10
    Codec ID                    : V_MPEG4/ISO/AVC
    Duration                    : 1 h 41 min
    Bit rate mode               : Variable
    Bit rate                    : 33.8 Mb/s
    Width                       : 1 920 pixels
    Height                      : 1 080 pixels
    Display aspect ratio        : 16:9
    Frame rate mode             : Constant
    Frame rate                  : 23.976 (24000/1001) FPS
    Color space                 : YUV
    Chroma subsampling          : 4:2:0
    Bit depth                   : 8 bits
    Scan type                   : Progressive
    Bits/(Pixel*Frame)          : 0.680
    Stream size                 : 24.0 GiB (90%)
    Title                       : REMUX 1080p [CinemaniaHDD]
    Default                     : Yes
    Forced                      : No

    Audio #1
    ID                          : 2
    Format                      : AC-3
    Format/Info                 : Audio Coding 3
    Commercial name             : Dolby Digital
    Codec ID                    : A_AC3
    Duration                    : 1 h 41 min
    Bit rate mode               : Constant
    Bit rate                    : 256 kb/s
    Channel(s)                  : 2 channels
    Channel layout              : L R
    Sampling rate               : 48.0 kHz
    Frame rate                  : 31.250 FPS (1536 SPF)
    Compression mode            : Lossy
    Stream size                 : 186 MiB (1%)
    Title                       : Español Latino [CinemaniaHDD]
    Language                    : Spanish
    Service kind                : Complete Main
    Default                     : Yes
    Forced                      : No

    Audio #2
    ID                          : 3
    Format                      : DTS XLL
    Format/Info                 : Digital Theater Systems
    Commercial name             : DTS-HD Master Audio
    Codec ID                    : A_DTS
    Duration                    : 1 h 41 min
    Bit rate mode               : Variable
    Bit rate                    : 3 558 kb/s
    Channel(s)                  : 6 channels
    Channel layout              : C L R Ls Rs LFE
    Sampling rate               : 48.0 kHz
    Frame rate                  : 93.750 FPS (512 SPF)
    Bit depth                   : 24 bits
    Compression mode            : Lossless
    Stream size                 : 2.53 GiB (9%)
    Title                       : Ingles [CinemaniaHDD]
    Language                    : English
    Default                     : No
    Forced                      : No

    Text #1
    ID                          : 4
    Format                      : PGS
    Muxing mode                 : zlib
    Codec ID                    : S_HDMV/PGS
    Codec ID/Info               : Picture based subtitle format used on BDs/HD-DVDs
    Duration                    : 1 h 41 min
    Bit rate                    : 51.5 kb/s
    Count of elements           : 3254
    Stream size                 : 37.3 MiB (0%)
    Title                       : Español-PGS [CinemaniaHDD]
    Language                    : Spanish
    Default                     : No
    Forced                      : No

    Text #2
    ID                          : 5
    Format                      : PGS
    Muxing mode                 : zlib
    Codec ID                    : S_HDMV/PGS
    Codec ID/Info               : Picture based subtitle format used on BDs/HD-DVDs
    Duration                    : 1 h 40 min
    Bit rate                    : 62.6 kb/s
    Count of elements           : 3550
    Stream size                 : 45.1 MiB (0%)
    Title                       : Ingles-PGS [CinemaniaHDD]
    Language                    : English
    Default                     : No
    Forced                      : No

    Text #3
    ID                          : 6
    Format                      : UTF-8
    Codec ID                    : S_TEXT/UTF8
    Codec ID/Info               : UTF-8 Plain Text
    Duration                    : 1 h 38 min
    Bit rate                    : 0 b/s
    Count of elements           : 9
    Stream size                 : 236 Bytes (0%)
    Title                       : Forzados-SRT [CinemaniaHDD]
    Language                    : Spanish
    Default                     : Yes
    Forced                      : No

    Text #4
    ID                          : 7
    Format                      : UTF-8
    Codec ID                    : S_TEXT/UTF8
    Codec ID/Info               : UTF-8 Plain Text
    Duration                    : 1 h 40 min
    Bit rate                    : 78 b/s
    Count of elements           : 1624
    Stream size                 : 57.6 KiB (0%)
    Title                       : Español-SRT [CinemaniaHDD]
    Language                    : Spanish
    Default                     : No
    Forced                      : No

    Menu
    00:00:00.000                : en:Chapter 1
    00:04:51.291                : en:Chapter 2
    00:10:15.448                : en:Chapter 3
    00:13:29.017                : en:Chapter 4
    00:18:12.717                : en:Chapter 5
    00:25:48.964                : en:Chapter 6
    00:29:34.898                : en:Chapter 7
    00:35:03.893                : en:Chapter 8
    00:38:58.461                : en:Chapter 9
    00:43:48.793                : en:Chapter 10
    00:48:48.342                : en:Chapter 11
    00:54:43.155                : en:Chapter 12
    01:02:36.086                : en:Chapter 13
    01:08:10.295                : en:Chapter 14
    01:12:35.977                : en:Chapter 15
    01:17:51.375                : en:Chapter 16
    01:21:37.601                : en:Chapter 17
    01:25:55.025                : en:Chapter 18
    01:29:29.406                : en:Chapter 19
    01:35:01.237                : en:Chapter 20

  • Peso: 26.7 GiB

Sinopsis

Descargar Un Plan Irresistible (2020) REMUX 1080p Latino. Gary Zimmer, el principal estratega del Comité Nacional Demócrata, ve un vídeo de un Coronel de la Marina hablando a favor de los derechos de los trabajadores sin papeles y cree haber encontrado la clave para volverse a ganar el corazón del país. Para contraatacar la estrategia de Zimmer, el Comité Nacional Republicano le enfrenta con su némesis Faith, haciendo que lo que empezó como un pequeño enfrentamiento, aumente a una batalla por conquistar el corazón de Estados Unidos.

Ficha técnica

Video trailer de la película

Enlaces de descarga

Rip de Bluray

Descargar Un Plan Irresistible (2020) REMUX 1080p Latino




Aportes de DPeliculasHDmega la pass es:dpeliculashdmega.org Aportes de CinemaniaHD la pass es:cinemaniahdd.com
Guardado en : Comedia , Drama , Remux

Películas relacionadas

  • Hombre de familia (2000) REMUX 1080p Latino

    Hombre de familia (2000) REMUX 1080p Latino

    2000
    Hombre de familia (2000) REMUX 1080p Latino

    2h 1m 2000

    Descargar Hombre de familia (2000) REMUX 1080p Latino. Jack Campbell es un egocéntrico broker de Wall...

    Director: Robert Schroer

    Género: Comedia

    Actores: Wass Stevens

  • Anon (2018) REMUX 1080p Latino

    Anon (2018) REMUX 1080p Latino

    2018
    Anon (2018) REMUX 1080p Latino

    1h 40m 2018

    Descargar Anon (2018) REMUX 1080p Latino. Anon nos lleva hasta un futuro no muy lejano al estilo soviético,...

    Director: Sarah Campbell

    Género: Ciencia ficción

    Actores: Zion Lee

  • Te Amo Brother (2009) REMUX 1080p Latino

    Te Amo Brother (2009) REMUX 1080p Latino

    2009
    Te Amo Brother (2009) REMUX 1080p Latino

    1h 45m 2009

    Descargar Te Amo Brother (2009) REMUX 1080p Latino. Peter Klaven (Paul Rudd) es un joven que vive muy...

    Director: Scott Robertson

    Género: Comedia

    Actores: Vicki Davis

descargar Un Plan Irresistible (2020) REMUX 1080p Latino Full 1080p 1080p gratis, Un Plan Irresistible (2020) REMUX 1080p Latino Full 1080p mega 1 link, Un Plan Irresistible (2020) REMUX 1080p Latino Full 1080p pelicula completa, descargar Un Plan Irresistible (2020) REMUX 1080p Latino Full 1080p gratis en mega.

Un Plan Irresistible (2020) REMUX 1080p Latino pelicula full hd, Un Plan Irresistible (2020) REMUX 1080p Latino mega latino, Un Plan Irresistible (2020) REMUX 1080p Latino 4k latino, Un Plan Irresistible (2020) REMUX 1080p Latino pelicula completa, Un Plan Irresistible (2020) REMUX 1080p Latino descargar gratis, descargar Un Plan Irresistible (2020) REMUX 1080p Latino pelicula latino, Un Plan Irresistible (2020) REMUX 1080p Latino 1 link mega, Un Plan Irresistible (2020) REMUX 1080p Latino 1 link google drive, Un Plan Irresistible (2020) REMUX 1080p Latino hd 1080p latino.
Comentarios 0