×

¿Problemas para descargar con Mozilla, EDGE? Deshabilita la opción "Abrir vinculos en una pestaña nueva" tal como lo muestra ésta imagen.

Un novato en apuros (2014) Full HD PLACEBO 1080p Latino

296 vistas

Información de Un novato en apuros (2014) Full HD PLACEBO 1080p Latino

Datos de la película

  • Calidad: Full 1080p
  • Audio: Español Latino DTS 5.1 BLURAY - Ingles DTS 5.1 BLURAY
  • Subtitulos: Español Latino PGS - Ingles PGS
  • Resolución: 1920x1080
  • Formato: MKV
  • Codec: H.264
  • Encoder: cinemaniahdd
  • Mediainfo: Clic para Mostrar Datos Ver
  • Un Novato En Apuros (2014) Full HD PLACEBO 1080p Latino.mkv
    Format                      : Matroska
    Format version              : Version 4
    File size                   : 4.78 GiB
    Duration                    : 1 h 39 min
    Overall bit rate            : 6 867 kb/s
    Movie name                  : Un Novato En Apuros - CinemaniaHDD.Net
    Encoded date                : UTC 2020-08-14 00:53:24
    Writing application         : mkvmerge v46.0.0 ('No Deeper Escape') 64-bit
    Writing library             : libebml v1.3.10 + libmatroska v1.5.2

    Video
    ID                          : 1
    Format                      : AVC
    Format/Info                 : Advanced Video Codec
    Format profile              : High@L4.1
    Format settings             : CABAC / 4 Ref Frames
    Format settings, CABAC      : Yes
    Format settings, Reference  : 4 frames
    Codec ID                    : V_MPEG4/ISO/AVC
    Duration                    : 1 h 39 min
    Bit rate                    : 3 909 kb/s
    Width                       : 1 920 pixels
    Height                      : 1 080 pixels
    Display aspect ratio        : 16:9
    Frame rate mode             : Constant
    Frame rate                  : 23.976 (24000/1001) FPS
    Color space                 : YUV
    Chroma subsampling          : 4:2:0
    Bit depth                   : 8 bits
    Scan type                   : Progressive
    Bits/(Pixel*Frame)          : 0.079
    Stream size                 : 2.72 GiB (57%)
    Title                       : CinemaniaHDD
    Writing library             : x264 core 157 r2935 545de2f
    Encoding settings           : cabac=1 / ref=4 / deblock=1:0:0 / analyse=0x3:0x133 / me=tesa / subme=11 / psy=1 / psy_rd=1.00:0.00 / mixed_ref=1 / me_range=24 / chroma_me=1 / trellis=2 / 8x8dct=1 / cqm=0 / deadzone=21,11 / fast_pskip=0 / chroma_qp_offset=-2 / threads=24 / lookahead_threads=6 / sliced_threads=0 / nr=0 / decimate=1 / interlaced=0 / bluray_compat=0 / constrained_intra=0 / bframes=16 / b_pyramid=2 / b_adapt=2 / b_bias=0 / direct=3 / weightb=1 / open_gop=0 / weightp=2 / keyint=240 / keyint_min=24 / scenecut=40 / intra_refresh=0 / rc_lookahead=60 / rc=crf / mbtree=1 / crf=20.0 / qcomp=0.60 / qpmin=0 / qpmax=69 / qpstep=4 / vbv_maxrate=62500 / vbv_bufsize=78125 / crf_max=0.0 / nal_hrd=none / filler=0 / ip_ratio=1.40 / aq=1:1.00
    Default                     : Yes
    Forced                      : No
    Color range                 : Limited
    Color primaries             : BT.709
    Transfer characteristics    : BT.709
    Matrix coefficients         : BT.709

    Audio #1
    ID                          : 2
    Format                      : AC-3
    Format/Info                 : Audio Coding 3
    Commercial name             : Dolby Digital
    Codec ID                    : A_AC3
    Duration                    : 1 h 39 min
    Bit rate mode               : Constant
    Bit rate                    : 640 kb/s
    Channel(s)                  : 6 channels
    Channel layout              : L R C LFE Ls Rs
    Sampling rate               : 48.0 kHz
    Frame rate                  : 31.250 FPS (1536 SPF)
    Compression mode            : Lossy
    Delay relative to video     : -5 ms
    Stream size                 : 456 MiB (9%)
    Title                       : Español latino - AC3 [CinemaniaHDD]
    Language                    : Spanish
    Service kind                : Complete Main
    Default                     : Yes
    Forced                      : No

    Audio #2
    ID                          : 3
    Format                      : DTS
    Format/Info                 : Digital Theater Systems
    Codec ID                    : A_DTS
    Duration                    : 1 h 39 min
    Bit rate mode               : Constant
    Bit rate                    : 768 kb/s
    Channel(s)                  : 6 channels
    Channel layout              : C L R Ls Rs LFE
    Sampling rate               : 48.0 kHz
    Frame rate                  : 93.750 FPS (512 SPF)
    Bit depth                   : 24 bits
    Compression mode            : Lossy
    Delay relative to video     : -5 ms
    Stream size                 : 547 MiB (11%)
    Title                       : Español latino - DTS [CinemaniaHDD]
    Language                    : Spanish
    Default                     : No
    Forced                      : No

    Audio #3
    ID                          : 4
    Format                      : DTS
    Format/Info                 : Digital Theater Systems
    Codec ID                    : A_DTS
    Duration                    : 1 h 39 min
    Bit rate mode               : Constant
    Bit rate                    : 1 509 kb/s
    Channel(s)                  : 6 channels
    Channel layout              : C L R Ls Rs LFE
    Sampling rate               : 48.0 kHz
    Frame rate                  : 93.750 FPS (512 SPF)
    Bit depth                   : 24 bits
    Compression mode            : Lossy
    Delay relative to video     : -5 ms
    Stream size                 : 1.05 GiB (22%)
    Title                       : Inglés - DTS [CinemaniaHDD]
    Language                    : English
    Default                     : No
    Forced                      : No

    Text #1
    ID                          : 5
    Format                      : UTF-8
    Codec ID                    : S_TEXT/UTF8
    Codec ID/Info               : UTF-8 Plain Text
    Duration                    : 1 h 21 min
    Bit rate                    : 0 b/s
    Count of elements           : 10
    Stream size                 : 298 Bytes (0%)
    Title                       : Forzados [CinemaniaHDD]
    Language                    : Spanish
    Default                     : Yes
    Forced                      : Yes

    Text #2
    ID                          : 6
    Format                      : UTF-8
    Codec ID                    : S_TEXT/UTF8
    Codec ID/Info               : UTF-8 Plain Text
    Duration                    : 1 h 34 min
    Bit rate                    : 90 b/s
    Count of elements           : 2128
    Stream size                 : 62.7 KiB (0%)
    Title                       : Español latino [CinemaniaHDD]
    Language                    : Spanish
    Default                     : No
    Forced                      : No

    Text #3
    ID                          : 7
    Format                      : PGS
    Muxing mode                 : zlib
    Codec ID                    : S_HDMV/PGS
    Codec ID/Info               : Picture based subtitle format used on BDs/HD-DVDs
    Duration                    : 1 h 21 min
    Bit rate                    : 44 b/s
    Count of elements           : 6
    Stream size                 : 26.7 KiB (0%)
    Title                       : Forzados [CinemaniaHDD]
    Language                    : Spanish
    Default                     : No
    Forced                      : No

    Text #4
    ID                          : 8
    Format                      : PGS
    Muxing mode                 : zlib
    Codec ID                    : S_HDMV/PGS
    Codec ID/Info               : Picture based subtitle format used on BDs/HD-DVDs
    Duration                    : 1 h 35 min
    Bit rate                    : 55.7 kb/s
    Count of elements           : 4238
    Stream size                 : 37.9 MiB (1%)
    Title                       : Español latino [CinemaniaHDD]
    Language                    : Spanish
    Default                     : No
    Forced                      : No

    Text #5
    ID                          : 9
    Format                      : PGS
    Muxing mode                 : zlib
    Codec ID                    : S_HDMV/PGS
    Codec ID/Info               : Picture based subtitle format used on BDs/HD-DVDs
    Duration                    : 1 h 35 min
    Bit rate                    : 72.1 kb/s
    Count of elements           : 4759
    Stream size                 : 49.0 MiB (1%)
    Title                       : Inglés [CinemaniaHDD]
    Language                    : Spanish
    Default                     : No
    Forced                      : No

    Menu
    00:00:00.000                : :Capítulo 01
    00:05:09.184                : :Capítulo 02
    00:10:37.387                : :Capítulo 03
    00:14:40.922                : :Capítulo 04
    00:19:46.519                : :Capítulo 05
    00:25:03.419                : :Capítulo 06
    00:31:16.750                : :Capítulo 07
    00:35:46.519                : :Capítulo 08
    00:40:51.658                : :Capítulo 09
    00:44:31.210                : :Capítulo 10
    00:50:40.287                : :Capítulo 11
    00:54:50.078                : :Capítulo 12
    01:00:00.931                : :Capítulo 13
    01:06:13.136                : :Capítulo 14
    01:11:47.303                : :Capítulo 15
    01:18:44.678                : :Capítulo 16
    01:22:53.594                : :Capítulo 17
    01:26:28.100                : :Capítulo 18
    01:30:09.279                : :Capítulo 19
    01:35:27.347                : :Capítulo 20

     

  • Peso: 4.78 GiB

Sinopsis

Ben trabaja como vigilante de una escuela de secundaria. Solo tiene un propósito: casarse con Ángela. Sus planes se ven truncados cuando se da cuenta de que antes debe conseguir la aprobación de James, el sobreprotector hermano de Ángela, un agente condecorado del departamento de policía de Atlanta. Para demostrar su valentía, Ben decide unirse al departamento de su cuñado y, aunque consigue superar las pruebas, tendrá que pasar la prueba más dura: acompañar a James en una patrulla de 24 horas por los suburbios de la ciudad.

Ficha técnica

Video trailer de la película

Enlaces de descarga

Rip de Bluray

Descargar Un novato en apuros (2014) Full HD PLACEBO 1080p Latino




Aportes de DPeliculasHDmega la pass es:dpeliculashdmega.org Aportes de CinemaniaHD la pass es:cinemaniahdd.com

Películas relacionadas

  • Zola (2020) HD 1080p Latino

    Zola (2020) HD 1080p Latino

    2020
    Zola (2020) HD 1080p Latino

    1h 26m 2020

    Descargar Zola (2020) HD 1080p Latino. Una camarera accede a acompañar a una bailarina exótica, su...

    Director: Sheri Davani

    Género: Comedia

    Actores: Ts Madison

  • Zola (2020) PLACEBO Full HD 1080p Latino

    Zola (2020) PLACEBO Full HD 1080p Latino

    2020
    Zola (2020) PLACEBO Full HD 1080p Latino

    1h 26m 2020

    Descargar Zola (2020) PLACEBO Full HD 1080p Latino. Una camarera accede a acompañar a una bailarina...

    Director: Sheri Davani

    Género: Comedia

    Actores: Ts Madison

  • Zola (2020) REMUX 1080p Latino

    Zola (2020) REMUX 1080p Latino

    2020
    Zola (2020) REMUX 1080p Latino

    1h 26m 2020

    Descargar Zola (2020) REMUX 1080p Latino. Una camarera accede a acompañar a una bailarina exótica,...

    Director: Sheri Davani

    Género: Comedia

    Actores: Ts Madison

descargar Un novato en apuros (2014) Full HD PLACEBO 1080p Latino Full 1080p 1080p gratis, Un novato en apuros (2014) Full HD PLACEBO 1080p Latino Full 1080p mega 1 link, Un novato en apuros (2014) Full HD PLACEBO 1080p Latino Full 1080p pelicula completa, descargar Un novato en apuros (2014) Full HD PLACEBO 1080p Latino Full 1080p gratis en mega.

Un novato en apuros (2014) Full HD PLACEBO 1080p Latino pelicula full hd, Un novato en apuros (2014) Full HD PLACEBO 1080p Latino mega latino, Un novato en apuros (2014) Full HD PLACEBO 1080p Latino 4k latino, Un novato en apuros (2014) Full HD PLACEBO 1080p Latino pelicula completa, Un novato en apuros (2014) Full HD PLACEBO 1080p Latino descargar gratis, descargar Un novato en apuros (2014) Full HD PLACEBO 1080p Latino pelicula latino, Un novato en apuros (2014) Full HD PLACEBO 1080p Latino 1 link mega, Un novato en apuros (2014) Full HD PLACEBO 1080p Latino 1 link google drive, Un novato en apuros (2014) Full HD PLACEBO 1080p Latino hd 1080p latino.
Comentarios 0