×

¿Problemas para descargar con Mozilla, EDGE? Deshabilita la opción "Abrir vinculos en una pestaña nueva" tal como lo muestra ésta imagen.

Un novato en apuros 2 (2016) REMUX 1080p Latino

292 vistas

Información de Un novato en apuros 2 (2016) REMUX 1080p Latino

Datos de la película

  • Calidad: Full 1080p
  • Audio: Español Latino DTS 5.1 BLURAY - Ingles DTS-HD 5.1 BLURAY
  • Subtitulos: Español Latino PGS - Ingles PGS
  • Resolución: 1920x1080
  • Formato: MKV
  • Codec: H.264
  • Encoder: cinemaniahdd
  • Mediainfo: Clic para Mostrar Datos Ver
  • Un Novato En Apuros 2 (2016) REMUX 1080p Latino.mkv
    Format                      : Matroska
    Format version              : Version 4
    File size                   : 26.4 GiB
    Duration                    : 1 h 41 min
    Overall bit rate mode       : Variable
    Overall bit rate            : 37.3 Mb/s
    Movie name                  : Un Novato En Apuros 2 (2016) REMUX - CinemaniaHDD.Net
    Encoded date                : UTC 2020-08-16 01:03:50
    Writing application         : mkvmerge v46.0.0 ('No Deeper Escape') 64-bit
    Writing library             : libebml v1.3.10 + libmatroska v1.5.2

    Video
    ID                          : 1
    ID in the original source m : 4113 (0x1011)
    Format                      : AVC
    Format/Info                 : Advanced Video Codec
    Format profile              : High@L4.1
    Format settings             : CABAC / 4 Ref Frames
    Format settings, CABAC      : Yes
    Format settings, Reference  : 4 frames
    Codec ID                    : V_MPEG4/ISO/AVC
    Duration                    : 1 h 41 min
    Bit rate mode               : Variable
    Bit rate                    : 31.3 Mb/s
    Maximum bit rate            : 34.0 Mb/s
    Width                       : 1 920 pixels
    Height                      : 1 080 pixels
    Display aspect ratio        : 16:9
    Frame rate mode             : Constant
    Frame rate                  : 23.976 (24000/1001) FPS
    Color space                 : YUV
    Chroma subsampling          : 4:2:0
    Bit depth                   : 8 bits
    Scan type                   : Progressive
    Bits/(Pixel*Frame)          : 0.630
    Stream size                 : 22.2 GiB (84%)
    Title                       : CinemaniaHDD
    Default                     : Yes
    Forced                      : No
    Original source medium      : Blu-ray

    Audio #1
    ID                          : 2
    ID in the original source m : 4356 (0x1104)
    Format                      : DTS
    Format/Info                 : Digital Theater Systems
    Codec ID                    : A_DTS
    Duration                    : 1 h 41 min
    Bit rate mode               : Constant
    Bit rate                    : 768 kb/s
    Channel(s)                  : 6 channels
    Channel layout              : C L R Ls Rs LFE
    Sampling rate               : 48.0 kHz
    Frame rate                  : 93.750 FPS (512 SPF)
    Bit depth                   : 24 bits
    Compression mode            : Lossy
    Stream size                 : 558 MiB (2%)
    Title                       : Español latino - DTS [CinemaniaHDD]
    Language                    : Spanish
    Default                     : Yes
    Forced                      : No
    Original source medium      : Blu-ray

    Audio #2
    ID                          : 3
    Format                      : AC-3
    Format/Info                 : Audio Coding 3
    Commercial name             : Dolby Digital
    Codec ID                    : A_AC3
    Duration                    : 1 h 41 min
    Bit rate mode               : Constant
    Bit rate                    : 640 kb/s
    Channel(s)                  : 6 channels
    Channel layout              : L R C LFE Ls Rs
    Sampling rate               : 48.0 kHz
    Frame rate                  : 31.250 FPS (1536 SPF)
    Compression mode            : Lossy
    Stream size                 : 465 MiB (2%)
    Title                       : Español latino - AC3 [CinemaniaHDD]
    Language                    : Spanish
    Service kind                : Complete Main
    Default                     : No
    Forced                      : No

    Audio #3
    ID                          : 4
    ID in the original source m : 4352 (0x1100)
    Format                      : DTS XLL
    Format/Info                 : Digital Theater Systems
    Commercial name             : DTS-HD Master Audio
    Codec ID                    : A_DTS
    Duration                    : 1 h 41 min
    Bit rate mode               : Variable
    Bit rate                    : 3 829 kb/s
    Channel(s)                  : 6 channels
    Channel layout              : C L R Ls Rs LFE
    Sampling rate               : 48.0 kHz
    Frame rate                  : 93.750 FPS (512 SPF)
    Bit depth                   : 24 bits
    Compression mode            : Lossless
    Stream size                 : 2.71 GiB (10%)
    Title                       : Inglés - DTS-HD [CinemaniaHDD]
    Language                    : English
    Default                     : No
    Forced                      : No
    Original source medium      : Blu-ray

    Audio #4
    ID                          : 5
    Format                      : AC-3
    Format/Info                 : Audio Coding 3
    Commercial name             : Dolby Digital
    Codec ID                    : A_AC3
    Duration                    : 1 h 41 min
    Bit rate mode               : Constant
    Bit rate                    : 640 kb/s
    Channel(s)                  : 6 channels
    Channel layout              : L R C LFE Ls Rs
    Sampling rate               : 48.0 kHz
    Frame rate                  : 31.250 FPS (1536 SPF)
    Compression mode            : Lossy
    Stream size                 : 465 MiB (2%)
    Title                       : Inglés - AC3 [CinemaniaHDD]
    Language                    : English
    Service kind                : Complete Main
    Default                     : No
    Forced                      : No

    Text #1
    ID                          : 6
    Format                      : UTF-8
    Codec ID                    : S_TEXT/UTF8
    Codec ID/Info               : UTF-8 Plain Text
    Duration                    : 1 h 40 min
    Bit rate                    : 0 b/s
    Count of elements           : 14
    Stream size                 : 380 Bytes (0%)
    Title                       : Forzados [CinemaniaHDD]
    Language                    : Spanish
    Default                     : Yes
    Forced                      : Yes

    Text #2
    ID                          : 7
    Format                      : UTF-8
    Codec ID                    : S_TEXT/UTF8
    Codec ID/Info               : UTF-8 Plain Text
    Duration                    : 1 h 36 min
    Bit rate                    : 93 b/s
    Count of elements           : 2048
    Stream size                 : 65.9 KiB (0%)
    Title                       : Español latino [CinemaniaHDD]
    Language                    : Spanish
    Default                     : No
    Forced                      : No

    Text #3
    ID                          : 8
    ID in the original source m : 4612 (0x1204)
    Format                      : PGS
    Muxing mode                 : zlib
    Codec ID                    : S_HDMV/PGS
    Codec ID/Info               : Picture based subtitle format used on BDs/HD-DVDs
    Duration                    : 1 h 40 min
    Bit rate                    : 54.6 kb/s
    Count of elements           : 4186
    Stream size                 : 39.3 MiB (0%)
    Title                       : Forzados [CinemaniaHDD]
    Language                    : Spanish
    Default                     : No
    Forced                      : No
    Original source medium      : Blu-ray

    Text #4
    ID                          : 9
    ID in the original source m : 4634 (0x121A)
    Format                      : PGS
    Muxing mode                 : zlib
    Codec ID                    : S_HDMV/PGS
    Codec ID/Info               : Picture based subtitle format used on BDs/HD-DVDs
    Duration                    : 1 h 40 min
    Bit rate                    : 382 b/s
    Count of elements           : 28
    Stream size                 : 280 KiB (0%)
    Title                       : Español latino [CinemaniaHDD]
    Language                    : Spanish
    Default                     : No
    Forced                      : No
    Original source medium      : Blu-ray

    Text #5
    ID                          : 10
    ID in the original source m : 4608 (0x1200)
    Format                      : PGS
    Muxing mode                 : zlib
    Codec ID                    : S_HDMV/PGS
    Codec ID/Info               : Picture based subtitle format used on BDs/HD-DVDs
    Duration                    : 1 h 36 min
    Bit rate                    : 69.1 kb/s
    Count of elements           : 4622
    Stream size                 : 47.5 MiB (0%)
    Title                       : Inglés [CinemaniaHDD]
    Language                    : Spanish
    Default                     : No
    Forced                      : No
    Original source medium      : Blu-ray

    Menu
    00:00:00.000                : en:Capítulo 01
    00:03:29.584                : en:Capítulo 02
    00:10:26.751                : en:Capítulo 03
    00:14:00.089                : en:Capítulo 04
    00:17:21.040                : en:Capítulo 05
    00:22:33.268                : en:Capítulo 06
    00:27:48.875                : en:Capítulo 07
    00:34:33.529                : en:Capítulo 08
    00:39:25.905                : en:Capítulo 09
    00:42:26.001                : en:Capítulo 10
    00:46:06.013                : en:Capítulo 11
    00:50:51.173                : en:Capítulo 12
    00:56:40.688                : en:Capítulo 13
    01:00:04.726                : en:Capítulo 14
    01:06:57.680                : en:Capítulo 15
    01:13:09.051                : en:Capítulo 16
    01:19:35.395                : en:Capítulo 17
    01:23:06.731                : en:Capítulo 18
    01:31:19.765                : en:Capítulo 19
    01:36:58.938                : en:Capítulo 20

     

  • Peso: 26.4 GiB

Sinopsis

El policía novato Ben Barber desea volverse detective, lo mismo que James Payton, su futuro cuñado. Reacio, James lleva a Ben a Miami en busca de pistas sobre un cartel de drogas. Durante a la investigación, ellos encuentran evidencias que implican a un respetado empresario. Les toca a ellos probar que el ejecutivo carismático, Antonio Papa, es un violento capo que comanda el tráfico de drogas en el sur de Florida.

Ficha técnica

  • Titulo original: Ride Along 2
  • Fecha de lanzamiento: 14-01-2016 (United States of America)
  • Director: Tim Story
  • Género: Acción, Comedia, Remux

Video trailer de la película

Enlaces de descarga

Rip de Bluray

Descargar Un novato en apuros 2 (2016) REMUX 1080p Latino




Aportes de DPeliculasHDmega la pass es:dpeliculashdmega.org Aportes de CinemaniaHD la pass es:cinemaniahdd.com
Guardado en : Acción , Comedia , Remux

Películas relacionadas

descargar Un novato en apuros 2 (2016) REMUX 1080p Latino Full 1080p 1080p gratis, Un novato en apuros 2 (2016) REMUX 1080p Latino Full 1080p mega 1 link, Un novato en apuros 2 (2016) REMUX 1080p Latino Full 1080p pelicula completa, descargar Un novato en apuros 2 (2016) REMUX 1080p Latino Full 1080p gratis en mega.

Un novato en apuros 2 (2016) REMUX 1080p Latino pelicula full hd, Un novato en apuros 2 (2016) REMUX 1080p Latino mega latino, Un novato en apuros 2 (2016) REMUX 1080p Latino 4k latino, Un novato en apuros 2 (2016) REMUX 1080p Latino pelicula completa, Un novato en apuros 2 (2016) REMUX 1080p Latino descargar gratis, descargar Un novato en apuros 2 (2016) REMUX 1080p Latino pelicula latino, Un novato en apuros 2 (2016) REMUX 1080p Latino 1 link mega, Un novato en apuros 2 (2016) REMUX 1080p Latino 1 link google drive, Un novato en apuros 2 (2016) REMUX 1080p Latino hd 1080p latino.
Comentarios 0