×

¿Problemas para descargar con Mozilla, EDGE? Deshabilita la opción "Abrir vinculos en una pestaña nueva" tal como lo muestra ésta imagen.

Un mundo extraño (2022) REMUX 1080p Latino

282 vistas

Información de Un mundo extraño (2022) REMUX 1080p Latino

Datos de la película

  • Calidad: Full 1080p
  • Audio: Se especifica abajo de la Sinopsis
  • Subtitulos: Español PGS - Ingles PGS
  • Resolución: 1920x1080p
  • Formato: MKV
  • Codec: H.264
  • Encoder: Melkor
  • Mediainfo: Clic para Mostrar Datos Ver
  • Un Mundo Extraño (2022) REMUX 1080p Latino.mkv Format                      : Matroska Format version              : Version 4 File size                   : 26.3 GiB Duration                    : 1 h 41 min Overall bit rate mode       : Variable Overall bit rate            : 37.0 Mb/s Movie name                  : Strange World (2022) CinemaniaHDD.Net Encoded date                : UTC 2023-02-03 14:36:24 Writing application         : mkvmerge v56.1.0 ('My Friend') 64-bit Writing library             : libebml v1.4.2 + libmatroska v1.6.4 Attachments                 : CINEMANIAHD.png Video ID                          : 1 Format                      : AVC Format/Info                 : Advanced Video Codec Format profile              : High@L4.1 Format settings             : CABAC / 4 Ref Frames Format settings, CABAC      : Yes Format settings, Reference  : 4 frames Codec ID                    : V_MPEG4/ISO/AVC Duration                    : 1 h 41 min Bit rate mode               : Variable Bit rate                    : 30.7 Mb/s Maximum bit rate            : 33.5 Mb/s Width                       : 1 920 pixels Height                      : 1 080 pixels Display aspect ratio        : 16:9 Frame rate mode             : Constant Frame rate                  : 23.976 (24000/1001) FPS Color space                 : YUV Chroma subsampling          : 4:2:0 Bit depth                   : 8 bits Scan type                   : Progressive Bits/(Pixel*Frame)          : 0.617 Stream size                 : 21.8 GiB (83%) Title                       : REMUX HD1080p [CinemaniaHDD] Default                     : Yes Forced                      : Yes Audio #1 ID                          : 2 Format                      : AC-3 Format/Info                 : Audio Coding 3 Commercial name             : Dolby Digital Codec ID                    : A_AC3 Duration                    : 1 h 41 min Bit rate mode               : Constant Bit rate                    : 640 kb/s Channel(s)                  : 6 channels Channel layout              : L R C LFE Ls Rs Sampling rate               : 48.0 kHz Frame rate                  : 31.250 FPS (1536 SPF) Compression mode            : Lossy Stream size                 : 466 MiB (2%) Title                       : Español Latino AC3 [CinemaniaHDD] Language                    : Spanish Service kind                : Complete Main Default                     : Yes Forced                      : Yes Audio #2 ID                          : 3 Format                      : E-AC-3 Format/Info                 : Enhanced AC-3 Commercial name             : Dolby Digital Plus Codec ID                    : A_EAC3 Duration                    : 1 h 41 min Bit rate mode               : Constant Bit rate                    : 640 kb/s Channel(s)                  : 8 channels Channel layout              : L R C LFE Ls Rs Lb Rb Sampling rate               : 48.0 kHz Frame rate                  : 31.250 FPS (1536 SPF) Compression mode            : Lossy Stream size                 : 466 MiB (2%) Title                       : Español Latino EAC3 [CinemaniaHDD] Language                    : Spanish Service kind                : Complete Main Default                     : No Forced                      : No Audio #3 ID                          : 4 Format                      : DTS XLL Format/Info                 : Digital Theater Systems Commercial name             : DTS-HD Master Audio Codec ID                    : A_DTS Duration                    : 1 h 41 min Bit rate mode               : Variable Bit rate                    : 4 978 kb/s Channel(s)                  : 8 channels Channel layout              : C L R LFE Lb Rb Lss Rss Sampling rate               : 48.0 kHz Frame rate                  : 93.750 FPS (512 SPF) Bit depth                   : 24 bits Compression mode            : Lossless Stream size                 : 3.54 GiB (13%) Title                       : Ingles [CinemaniaHDD] Language                    : English Default                     : No Forced                      : No Text #1 ID                          : 5 Format                      : PGS Muxing mode                 : zlib Codec ID                    : S_HDMV/PGS Codec ID/Info               : Picture based subtitle format used on BDs/HD-DVDs Duration                    : 1 h 40 min Bit rate                    : 29.9 kb/s Count of elements           : 2614 Stream size                 : 21.4 MiB (0%) Title                       : Español-PGS [CinemaniaHDD] Language                    : Spanish Default                     : No Forced                      : No Text #2 ID                          : 6 Format                      : PGS Muxing mode                 : zlib Codec ID                    : S_HDMV/PGS Codec ID/Info               : Picture based subtitle format used on BDs/HD-DVDs Duration                    : 1 h 40 min Bit rate                    : 49.9 kb/s Count of elements           : 3960 Stream size                 : 36.0 MiB (0%) Title                       : Ingles-PGS [CinemaniaHDD] Language                    : English Default                     : No Forced                      : No Text #3 ID                          : 7 Format                      : UTF-8 Codec ID                    : S_TEXT/UTF8 Codec ID/Info               : UTF-8 Plain Text Duration                    : 1 h 30 min Bit rate                    : 0 b/s Count of elements           : 15 Stream size                 : 274 Bytes (0%) Title                       : Forzados-SRT [CinemaniaHDD] Language                    : Spanish Default                     : Yes Forced                      : Yes Text #4 ID                          : 8 Format                      : UTF-8 Codec ID                    : S_TEXT/UTF8 Codec ID/Info               : UTF-8 Plain Text Duration                    : 1 h 39 min Bit rate                    : 52 b/s Count of elements           : 1308 Stream size                 : 38.1 KiB (0%) Title                       : Español-SRT [CinemaniaHDD] Language                    : Spanish Default                     : No Forced                      : No Menu 00:00:00.000                : Chapter 01 00:06:34.811                : Chapter 02 00:12:16.777                : Chapter 03 00:14:52.766                : Chapter 04 00:19:37.843                : Chapter 05 00:25:42.123                : Chapter 06 00:30:59.899                : Chapter 07 00:39:10.473                : Chapter 08 00:49:11.865                : Chapter 09 00:54:43.238                : Chapter 10 00:58:45.396                : Chapter 11 01:08:33.484                : Chapter 12 01:11:47.219                : Chapter 13 01:16:15.487                : Chapter 14 01:18:25.784                : Chapter 15 01:21:50.697                : Chapter 16 01:26:54.667                : Chapter 17 01:29:30.656                : Chapter 18
  • Peso: 26.3 GiB

Sinopsis

Descargar Un mundo extraño (2022) REMUX 1080p. Un viaje a una tierra inexplorada y traicionera en la que unos seres fantásticos aguardan la llegada de los míticos Clade, una familia de exploradores cuyas diferencias amenazan con frustrar su última misión, la más crucial con diferencia.

Español Latino EAC3 7.1 & AC3 5.1 Web – Ingles DTS-HD 7.1 BD

Ficha técnica

Video trailer de la película

Enlaces de descarga

Rip de Bluray

Descargar Un mundo extraño (2022) REMUX 1080p Latino




Aportes de DPeliculasHDmega la pass es:dpeliculashdmega.org Aportes de CinemaniaHD la pass es:cinemaniahdd.com Aportes recientes:cinemaniahdd.net

Películas relacionadas

  • The Chosen (2024) Temorada 4 WEB-DL 1080p Latino

    The Chosen (2024) Temorada 4 WEB-DL 1080p Latino

    2019
    The Chosen (2024) Temorada 4 WEB-DL 1080p Latino

    0h 43m 2019

    Por primera vez, la historia más grande jamás contada se presenta en una serie de varias temporadas....

    Director: Dallas Jenkins

    Género: Drama

    Actores: Yasmine Al-Bustami

  • Tiburón (1975) REMUX 1080p Latino-CMHDD

    Tiburón (1975) REMUX 1080p Latino-CMHDD

    1975
    Tiburón (1975) REMUX 1080p Latino-CMHDD

    2h 4m 1975

    Descargar Tiburón (1975) REMUX 1080p Latino-CMHDD. En la costa de un pequeño pueblo del Este de Estados...

    Director: Tom Joyner

    Género: Aventura

    Actores: Ted Grossman

  • Oblivion (2013) REMUX 4K HDR Latino – CMHDD

    Oblivion (2013) REMUX 4K HDR Latino – CMHDD

    2013
    Oblivion (2013) REMUX 4K HDR Latino – CMHDD

    2 h 4 min 2013

    Jack Harper es uno de los últimos técnicos de reparación de drones que permanece en la Tierra. Parte...

    Director: Joseph Kosinski

    Género: 4K HDR

    Actores: Zoë Bell

descargar Un mundo extraño (2022) REMUX 1080p Latino Full 1080p 1080p gratis, Un mundo extraño (2022) REMUX 1080p Latino Full 1080p mega 1 link, Un mundo extraño (2022) REMUX 1080p Latino Full 1080p pelicula completa, descargar Un mundo extraño (2022) REMUX 1080p Latino Full 1080p gratis en mega.

Un mundo extraño (2022) REMUX 1080p Latino pelicula full hd, Un mundo extraño (2022) REMUX 1080p Latino mega latino, Un mundo extraño (2022) REMUX 1080p Latino 4k latino, Un mundo extraño (2022) REMUX 1080p Latino pelicula completa, Un mundo extraño (2022) REMUX 1080p Latino descargar gratis, descargar Un mundo extraño (2022) REMUX 1080p Latino pelicula latino, Un mundo extraño (2022) REMUX 1080p Latino 1 link mega, Un mundo extraño (2022) REMUX 1080p Latino 1 link google drive, Un mundo extraño (2022) REMUX 1080p Latino hd 1080p latino.
Comentarios 0