×

¿Problemas para descargar con Mozilla, EDGE? Deshabilita la opción "Abrir vinculos en una pestaña nueva" tal como lo muestra ésta imagen.

Un momento en el tiempo (2019) 1080p Latino

310 vistas

Información de Un momento en el tiempo (2019) 1080p Latino

Datos de la película

  • Calidad: 1080p
  • Audio: Español Latino AC3 5.1 iTUNES - Ingles AC3 5.1 BLURAY
  • Subtitulos: Español Latino SRT
  • Resolución: 1920x720
  • Formato: MKV
  • Codec: H.264
  • Encoder: CinemaniaHD
  • Mediainfo: Clic para Mostrar Datos Ver
  • Waves (2019) 1080p Latino.mkv
    Format                      : Matroska
    Format version              : Version 4
    File size                   : 4.11 GiB
    Duration                    : 2 h 15 min
    Overall bit rate            : 4 329 kb/s
    Movie name                  : Waves (2019) 1080p Latino
    Encoded date                : UTC 2020-05-30 06:13:38
    Writing application         : mkvmerge v46.0.0 ('No Deeper Escape') 64-bit
    Writing library             : libebml v1.3.10 + libmatroska v1.5.2 / Lavf58.29.100

    Video
    ID                          : 1
    Format                      : AVC
    Format/Info                 : Advanced Video Codec
    Format profile              : High@L4.1
    Format settings             : CABAC / 5 Ref Frames
    Format settings, CABAC      : Yes
    Format settings, Reference  : 5 frames
    Codec ID                    : V_MPEG4/ISO/AVC
    Duration                    : 2 h 15 min
    Bit rate                    : 3 500 kb/s
    Width                       : 1 920 pixels
    Height                      : 720 pixels
    Display aspect ratio        : 2.667
    Frame rate mode             : Constant
    Frame rate                  : 23.976 (24000/1001) FPS
    Color space                 : YUV
    Chroma subsampling          : 4:2:0
    Bit depth                   : 8 bits
    Scan type                   : Progressive
    Bits/(Pixel*Frame)          : 0.106
    Stream size                 : 3.31 GiB (81%)
    Title                       : CinemaniaHDD
    Writing library             : x264 core 157 r2935 545de2f
    Encoding settings           : cabac=1 / ref=5 / deblock=1:0:0 / analyse=0x3:0x113 / me=hex / subme=8 / psy=1 / psy_rd=1.00:0.00 / mixed_ref=1 / me_range=16 / chroma_me=1 / trellis=2 / 8x8dct=1 / cqm=0 / deadzone=21,11 / fast_pskip=1 / chroma_qp_offset=-2 / threads=22 / lookahead_threads=3 / sliced_threads=0 / nr=0 / decimate=1 / interlaced=0 / bluray_compat=0 / constrained_intra=0 / bframes=3 / b_pyramid=2 / b_adapt=1 / b_bias=0 / direct=3 / weightb=1 / open_gop=0 / weightp=2 / keyint=240 / keyint_min=24 / scenecut=40 / intra_refresh=0 / rc_lookahead=50 / rc=abr / mbtree=1 / bitrate=3500 / ratetol=1.0 / qcomp=0.60 / qpmin=0 / qpmax=69 / qpstep=4 / vbv_maxrate=62500 / vbv_bufsize=78125 / nal_hrd=none / filler=0 / ip_ratio=1.40 / aq=1:1.00
    Default                     : Yes
    Forced                      : No
    Color range                 : Limited
    Color primaries             : BT.709
    Transfer characteristics    : BT.709
    Matrix coefficients         : BT.709

    Audio #1
    ID                          : 2
    Format                      : AC-3
    Format/Info                 : Audio Coding 3
    Commercial name             : Dolby Digital
    Codec ID                    : A_AC3
    Duration                    : 2 h 15 min
    Bit rate mode               : Constant
    Bit rate                    : 384 kb/s
    Channel(s)                  : 6 channels
    Channel layout              : L R C LFE Ls Rs
    Sampling rate               : 44.1 kHz
    Frame rate                  : 28.711 FPS (1536 SPF)
    Compression mode            : Lossy
    Delay relative to video     : -5 ms
    Stream size                 : 373 MiB (9%)
    Title                       : Español latino [CinemaniaHDD]
    Language                    : Spanish
    Service kind                : Complete Main
    Default                     : Yes
    Forced                      : No

    Audio #2
    ID                          : 3
    Format                      : AC-3
    Format/Info                 : Audio Coding 3
    Commercial name             : Dolby Digital
    Codec ID                    : A_AC3
    Duration                    : 2 h 15 min
    Bit rate mode               : Constant
    Bit rate                    : 448 kb/s
    Channel(s)                  : 6 channels
    Channel layout              : L R C LFE Ls Rs
    Sampling rate               : 48.0 kHz
    Frame rate                  : 31.250 FPS (1536 SPF)
    Compression mode            : Lossy
    Delay relative to video     : -5 ms
    Stream size                 : 435 MiB (10%)
    Title                       : Inglés [CinemaniaHDD]
    Language                    : English
    Service kind                : Complete Main
    Default                     : No
    Forced                      : No

    Text
    ID                          : 4
    Format                      : UTF-8
    Codec ID                    : S_TEXT/UTF8
    Codec ID/Info               : UTF-8 Plain Text
    Duration                    : 2 h 13 min
    Bit rate                    : 37 b/s
    Count of elements           : 1191
    Stream size                 : 36.6 KiB (0%)
    Title                       : Español latino [CinemaniaHDD]
    Language                    : Spanish
    Default                     : No
    Forced                      : No

    Menu
    00:00:00.000                : :Chapter 1
    00:07:21.816                : :Chapter 2
    00:16:07.049                : :Chapter 3
    00:26:52.694                : :Chapter 4
    00:34:39.369                : :Chapter 5
    00:40:58.206                : :Chapter 6
    00:50:10.007                : :Chapter 7
    00:55:36.291                : :Chapter 8
    01:04:22.609                : :Chapter 9
    01:12:01.317                : :Chapter 10
    01:18:40.883                : :Chapter 11
    01:26:01.865                : :Chapter 12
    01:37:00.398                : :Chapter 13
    01:43:37.044                : :Chapter 14
    01:57:05.435                : :Chapter 15
    02:07:17.380                : :Chapter 16

  • Peso: 4.11 GiB

Sinopsis

Dos parejas jóvenes navegan a través del campo de minas emocional que supone madurar y enamorarse por primera vez.

Ficha técnica

Video trailer de la película

Enlaces de descarga

Rip de Bluray

Descargar Un momento en el tiempo (2019) 1080p Latino




Aportes de DPeliculasHDmega la pass es:dpeliculashdmega.org Aportes de CinemaniaHD la pass es:cinemaniahdd.com
Guardado en : Drama , HD 1080p , Romance

Películas relacionadas

descargar Un momento en el tiempo (2019) 1080p Latino 1080p 1080p gratis, Un momento en el tiempo (2019) 1080p Latino 1080p mega 1 link, Un momento en el tiempo (2019) 1080p Latino 1080p pelicula completa, descargar Un momento en el tiempo (2019) 1080p Latino 1080p gratis en mega.

Un momento en el tiempo (2019) 1080p Latino pelicula full hd, Un momento en el tiempo (2019) 1080p Latino mega latino, Un momento en el tiempo (2019) 1080p Latino 4k latino, Un momento en el tiempo (2019) 1080p Latino pelicula completa, Un momento en el tiempo (2019) 1080p Latino descargar gratis, descargar Un momento en el tiempo (2019) 1080p Latino pelicula latino, Un momento en el tiempo (2019) 1080p Latino 1 link mega, Un momento en el tiempo (2019) 1080p Latino 1 link google drive, Un momento en el tiempo (2019) 1080p Latino hd 1080p latino.
Comentarios 0