×

¿Problemas para descargar con Mozilla, EDGE? Deshabilita la opción "Abrir vinculos en una pestaña nueva" tal como lo muestra ésta imagen.

Un Milagro Inesperado (2021) REMUX 1080p Latino – CMHDD

171 vistas

Información de Un Milagro Inesperado (2021) REMUX 1080p Latino – CMHDD

Datos de la película

  • Calidad: Full 1080p
  • Audio: Se especifica abajo de la Sinopsis
  • Subtitulos: Español Latino PGS
  • Resolución: 1920x1080p
  • Formato: MKV
  • Codec: H.264
  • Encoder: Melkor - Dracarys
  • Mediainfo: Clic para Mostrar Datos Ver
  • Format                      : Matroska
    Format version              : Version 4
    File size                   : 21.0 GiB
    Duration                    : 1 h 35 min
    Overall bit rate mode       : Variable
    Overall bit rate            : 31.7 Mb/s
    Movie name                  : Un Milagro Inesperado (2021) REMUX 1080p Latino - CMHDD
    Encoded date                : UTC 2021-07-22 17:13:54
    Writing application         : mkvmerge v56.1.0 ('My Friend') 64-bit
    Writing library             : libebml v1.4.2 + libmatroska v1.6.4
    Cover                       : Yes
    Attachments                 : cover.jpg

    Video
    ID                          : 1
    ID in the original source m : 4113 (0x1011)
    Format                      : AVC
    Format/Info                 : Advanced Video Codec
    Format profile              : High@L4.1
    Format settings             : CABAC / 4 Ref Frames
    Format settings, CABAC      : Yes
    Format settings, Reference  : 4 frames
    Codec ID                    : V_MPEG4/ISO/AVC
    Duration                    : 1 h 35 min
    Bit rate mode               : Variable
    Bit rate                    : 25.2 Mb/s
    Maximum bit rate            : 30.0 Mb/s
    Width                       : 1 920 pixels
    Height                      : 1 080 pixels
    Display aspect ratio        : 16:9
    Frame rate mode             : Constant
    Frame rate                  : 24.000 FPS
    Color space                 : YUV
    Chroma subsampling          : 4:2:0
    Bit depth                   : 8 bits
    Scan type                   : Progressive
    Bits/(Pixel*Frame)          : 0.506
    Stream size                 : 16.7 GiB (80%)
    Default                     : Yes
    Forced                      : No
    Color range                 : Limited
    Color primaries             : BT.709
    Transfer characteristics    : BT.709
    Matrix coefficients         : BT.709
    Original source medium      : Blu-ray

    Audio #1
    ID                          : 2
    ID in the original source m : 4352 (0x1100)
    Format                      : DTS XLL
    Format/Info                 : Digital Theater Systems
    Commercial name             : DTS-HD Master Audio
    Codec ID                    : A_DTS
    Duration                    : 1 h 35 min
    Bit rate mode               : Variable
    Bit rate                    : 3 238 kb/s
    Channel(s)                  : 6 channels
    Channel layout              : C L R Ls Rs LFE
    Sampling rate               : 48.0 kHz
    Frame rate                  : 93.750 FPS (512 SPF)
    Bit depth                   : 24 bits
    Compression mode            : Lossless
    Stream size                 : 2.15 GiB (10%)
    Language                    : Spanish
    Default                     : Yes
    Forced                      : No
    Original source medium      : Blu-ray

    Audio #2
    ID                          : 3
    ID in the original source m : 4354 (0x1102)
    Format                      : DTS XLL
    Format/Info                 : Digital Theater Systems
    Commercial name             : DTS-HD Master Audio
    Codec ID                    : A_DTS
    Duration                    : 1 h 35 min
    Bit rate mode               : Variable
    Bit rate                    : 3 234 kb/s
    Channel(s)                  : 6 channels
    Channel layout              : C L R Ls Rs LFE
    Sampling rate               : 48.0 kHz
    Frame rate                  : 93.750 FPS (512 SPF)
    Bit depth                   : 24 bits
    Compression mode            : Lossless
    Stream size                 : 2.15 GiB (10%)
    Language                    : English
    Default                     : No
    Forced                      : No
    Original source medium      : Blu-ray

    Text
    ID                          : 4
    ID in the original source m : 4608 (0x1200)
    Format                      : PGS
    Muxing mode                 : zlib
    Codec ID                    : S_HDMV/PGS
    Codec ID/Info               : Picture based subtitle format used on BDs/HD-DVDs
    Duration                    : 1 h 26 min
    Bit rate                    : 27.2 kb/s
    Count of elements           : 1798
    Stream size                 : 16.9 MiB (0%)
    Language                    : Spanish
    Default                     : No
    Forced                      : No
    Original source medium      : Blu-ray

    Menu
    00:00:00.000                : Chapter 01
    00:04:39.833                : Chapter 02
    00:09:15.041                : Chapter 03
    00:16:24.708                : Chapter 04
    00:22:35.500                : Chapter 05
    00:33:59.375                : Chapter 06
    00:42:14.541                : Chapter 07
    00:48:53.458                : Chapter 08
    00:56:34.666                : Chapter 09
    01:07:38.833                : Chapter 10
    01:19:28.041                : Chapter 11
    01:27:26.541                : Chapter 12

  • Peso: 21.0 GiB

Sinopsis

Descargar Un Milagro Inesperado (2021) REMUX 1080p Latino. Cuando un aliado poco probable entra en el mundo de la familia Bloom en forma de una cría de urraca herida a la que llaman Penguin, la llegada del pájaro marca una gran diferencia en la vida de la familia en apuros.

 

Latino: DTS-HD Master Audio 5.1  –  Ingles: DTS-HD Master Audio 5.1

 

Actualizada con mejor audio Latino

Ficha técnica

  • Titulo original: Penguin Bloom
  • Fecha de lanzamiento: 21-01-2021 (Australia, United States of America)
  • Director: Glendyn Ivin
  • Género: Drama, Remux

Video trailer de la película

Enlaces de descarga

Rip de Bluray

Descargar Un Milagro Inesperado (2021) REMUX 1080p Latino – CMHDD




Aportes de DPeliculasHDmega la pass es:dpeliculashdmega.org Aportes de CinemaniaHD la pass es:cinemaniahdd.com
Guardado en : Drama , Remux

Películas relacionadas

descargar Un Milagro Inesperado (2021) REMUX 1080p Latino – CMHDD Full 1080p 1080p gratis, Un Milagro Inesperado (2021) REMUX 1080p Latino – CMHDD Full 1080p mega 1 link, Un Milagro Inesperado (2021) REMUX 1080p Latino – CMHDD Full 1080p pelicula completa, descargar Un Milagro Inesperado (2021) REMUX 1080p Latino – CMHDD Full 1080p gratis en mega.

Un Milagro Inesperado (2021) REMUX 1080p Latino – CMHDD pelicula full hd, Un Milagro Inesperado (2021) REMUX 1080p Latino – CMHDD mega latino, Un Milagro Inesperado (2021) REMUX 1080p Latino – CMHDD 4k latino, Un Milagro Inesperado (2021) REMUX 1080p Latino – CMHDD pelicula completa, Un Milagro Inesperado (2021) REMUX 1080p Latino – CMHDD descargar gratis, descargar Un Milagro Inesperado (2021) REMUX 1080p Latino – CMHDD pelicula latino, Un Milagro Inesperado (2021) REMUX 1080p Latino – CMHDD 1 link mega, Un Milagro Inesperado (2021) REMUX 1080p Latino – CMHDD 1 link google drive, Un Milagro Inesperado (2021) REMUX 1080p Latino – CMHDD hd 1080p latino.
Comentarios 0