×

¿Problemas para descargar con Mozilla, EDGE? Deshabilita la opción "Abrir vinculos en una pestaña nueva" tal como lo muestra ésta imagen.

Un Lugar En Silencio Parte II (2021) REMUX 1080p Latino

789 vistas

Información de Un Lugar En Silencio Parte II (2021) REMUX 1080p Latino

Datos de la película

  • Calidad: Full 1080p
  • Audio: Se especifica abajo de la Sinopsis
  • Subtitulos: Español Latino PGS - Ingles PGS
  • Resolución: 1920x1080p
  • Formato: MKV
  • Codec: H.264
  • Encoder: Melkor | CinemaniaHD
  • Mediainfo: Clic para Mostrar Datos Ver
  • Un Lugar En Silencio Parte II (2021) REMUX 1080p Latino.mkv
    Format                      : Matroska
    Format version              : Version 4
    File size                   : 21.9 GiB
    Duration                    : 1 h 37 min
    Overall bit rate mode       : Variable
    Overall bit rate            : 32.4 Mb/s
    Movie name                  : A Quiet Place Part II (2021) CinemaniaHDD.Net
    Encoded date                : UTC 2021-07-16 08:36:28
    Writing application         : mkvmerge v56.1.0 ('My Friend') 64-bit
    Writing library             : libebml v1.4.2 + libmatroska v1.6.4
    Attachments                 : CINEMANIAHD.png

    Video
    ID                          : 1
    Format                      : AVC
    Format/Info                 : Advanced Video Codec
    Format profile              : High@L4.1
    Format settings             : CABAC / 4 Ref Frames
    Format settings, CABAC      : Yes
    Format settings, Reference  : 4 frames
    Codec ID                    : V_MPEG4/ISO/AVC
    Duration                    : 1 h 37 min
    Bit rate mode               : Variable
    Bit rate                    : 26.8 Mb/s
    Maximum bit rate            : 29.9 Mb/s
    Width                       : 1 920 pixels
    Height                      : 1 080 pixels
    Display aspect ratio        : 16:9
    Frame rate mode             : Constant
    Frame rate                  : 23.976 (24000/1001) FPS
    Color space                 : YUV
    Chroma subsampling          : 4:2:0
    Bit depth                   : 8 bits
    Scan type                   : Progressive
    Bits/(Pixel*Frame)          : 0.539
    Stream size                 : 18.1 GiB (83%)
    Title                       : REMUX HD1080p [CinemaniaHDD]
    Default                     : Yes
    Forced                      : No

    Audio #1
    ID                          : 2
    Format                      : AC-3
    Format/Info                 : Audio Coding 3
    Commercial name             : Dolby Digital
    Codec ID                    : A_AC3
    Duration                    : 1 h 37 min
    Bit rate mode               : Constant
    Bit rate                    : 640 kb/s
    Channel(s)                  : 6 channels
    Channel layout              : L R C LFE Ls Rs
    Sampling rate               : 48.0 kHz
    Frame rate                  : 31.250 FPS (1536 SPF)
    Compression mode            : Lossy
    Stream size                 : 444 MiB (2%)
    Title                       : Español Latino [CinemaniaHDD]
    Language                    : Spanish
    Service kind                : Complete Main
    Default                     : Yes
    Forced                      : No

    Audio #2
    ID                          : 3
    Format                      : MLP FBA 16-ch
    Format/Info                 : Meridian Lossless Packing FBA with 16-channel presentation
    Commercial name             : Dolby TrueHD with Dolby Atmos
    Codec ID                    : A_TRUEHD
    Duration                    : 1 h 37 min
    Bit rate mode               : Variable
    Bit rate                    : 4 224 kb/s
    Maximum bit rate            : 7 821 kb/s
    Channel(s)                  : 8 channels
    Channel layout              : L R C LFE Ls Rs Lb Rb
    Sampling rate               : 48.0 kHz
    Frame rate                  : 1 200.000 FPS (40 SPF)
    Compression mode            : Lossless
    Stream size                 : 2.86 GiB (13%)
    Title                       : Ingles [CinemaniaHDD]
    Language                    : English
    Default                     : No
    Forced                      : No
    Number of dynamic objects   : 11
    Bed channel count           : 1 channel
    Bed channel configuration   : LFE

    Audio #3
    ID                          : 4
    Format                      : AC-3
    Format/Info                 : Audio Coding 3
    Commercial name             : Dolby Digital
    Codec ID                    : A_AC3
    Duration                    : 1 h 37 min
    Bit rate mode               : Constant
    Bit rate                    : 640 kb/s
    Channel(s)                  : 6 channels
    Channel layout              : L R C LFE Ls Rs
    Sampling rate               : 48.0 kHz
    Frame rate                  : 31.250 FPS (1536 SPF)
    Compression mode            : Lossy
    Stream size                 : 444 MiB (2%)
    Title                       : Ingles AC3 [CinemaniaHDD]
    Language                    : English
    Service kind                : Complete Main
    Default                     : No
    Forced                      : No

    Text #1
    ID                          : 5
    Format                      : PGS
    Muxing mode                 : zlib
    Codec ID                    : S_HDMV/PGS
    Codec ID/Info               : Picture based subtitle format used on BDs/HD-DVDs
    Duration                    : 1 h 35 min
    Bit rate                    : 1 008 b/s
    Count of elements           : 184
    Stream size                 : 707 KiB (0%)
    Title                       : Forzados-PGS [CinemaniaHDD]
    Language                    : Spanish
    Default                     : Yes
    Forced                      : No

    Text #2
    ID                          : 6
    Format                      : PGS
    Muxing mode                 : zlib
    Codec ID                    : S_HDMV/PGS
    Codec ID/Info               : Picture based subtitle format used on BDs/HD-DVDs
    Duration                    : 1 h 35 min
    Bit rate                    : 6 774 b/s
    Count of elements           : 665
    Stream size                 : 4.64 MiB (0%)
    Title                       : Español-PGS [CinemaniaHDD]
    Language                    : Spanish
    Default                     : No
    Forced                      : No

    Text #3
    ID                          : 7
    Format                      : PGS
    Muxing mode                 : zlib
    Codec ID                    : S_HDMV/PGS
    Codec ID/Info               : Picture based subtitle format used on BDs/HD-DVDs
    Duration                    : 1 h 26 min
    Bit rate                    : 13.0 kb/s
    Count of elements           : 1153
    Stream size                 : 8.08 MiB (0%)
    Title                       : Ingles-PGS [CinemaniaHDD]
    Language                    : English
    Default                     : No
    Forced                      : No

    Text #4
    ID                          : 8
    Format                      : UTF-8
    Codec ID                    : S_TEXT/UTF8
    Codec ID/Info               : UTF-8 Plain Text
    Duration                    : 1 h 35 min
    Bit rate                    : 2 b/s
    Count of elements           : 90
    Stream size                 : 1.60 KiB (0%)
    Title                       : Forzados-SRT [CinemaniaHDD]
    Language                    : Spanish
    Default                     : No
    Forced                      : No

    Text #5
    ID                          : 9
    Format                      : UTF-8
    Codec ID                    : S_TEXT/UTF8
    Codec ID/Info               : UTF-8 Plain Text
    Duration                    : 1 h 24 min
    Bit rate                    : 12 b/s
    Count of elements           : 328
    Stream size                 : 7.59 KiB (0%)
    Title                       : Español-SRT [CinemaniaHDD]
    Language                    : Spanish
    Default                     : No
    Forced                      : No

    Menu
    00:00:00.000                : :Chapter 01
    00:06:39.190                : :Chapter 02
    00:12:16.319                : :Chapter 03
    00:17:00.269                : :Chapter 04
    00:26:28.170                : :Chapter 05
    00:33:26.338                : :Chapter 06
    00:38:06.701                : :Chapter 07
    00:45:53.751                : :Chapter 08
    00:51:18.033                : :Chapter 09
    00:55:35.916                : :Chapter 10
    01:02:21.279                : :Chapter 11
    01:08:43.828                : :Chapter 12
    01:16:31.921                : :Chapter 13
    01:21:25.881                : :Chapter 14
    01:28:12.996                : :Chapter 15

  • Peso: 21.9 GiB

Sinopsis

Descargar Un Lugar En Silencio Parte II (2021) REMUX 1080p Latino. Tras los fatales acontecimientos sucedidos en la primera parte, la familia Abbot debe enfrentarse a los peligros del mundo exterior mientras luchan en silencio por sobrevivir. Forzados a aventurarse en lo desconocido, pronto se dan cuenta de que las criaturas que cazan orientadas por el sonido no son la única amenaza que acecha más allá del camino de arena. Secuela de la exitosa producción «Un lugar tranquilo» (A Quiet Place, 2018).

Español Latino AC3 5.1 BD – Ingles TrueHD 7.1 & AC3 5.1 BD

Nota: Disponible Solo Para VIP!!! 🙂

Ficha técnica

Video trailer de la película

Enlaces de descarga

Rip de Bluray

Descargar Un Lugar En Silencio Parte II (2021) REMUX 1080p Latino


Aportes de DPeliculasHDmega la pass es:dpeliculashdmega.org Aportes de CinemaniaHD la pass es:cinemaniahdd.com Aportes recientes:cinemaniahdd.net
Guardado en : Ciencia ficción , Remux , Suspenso , Terror

Películas relacionadas

  • 57 Seconds (2023) AMZN WEB-DL 1080p Latino

    57 Seconds (2023) AMZN WEB-DL 1080p Latino

    2023
    57 Seconds (2023) AMZN WEB-DL 1080p Latino

    1h 39m 2023

    Cuando un blogger de tecnología consigue una entrevista con un gurú de la tecnología y detiene un...

    Director: Taylor DiMarco

    Género: Acción

    Actores: Valerie E. Lamb

  • The Bodyguard (1992) REMUX 1080p Latino-CMHDD

    The Bodyguard (1992) REMUX 1080p Latino-CMHDD

    1992
    The Bodyguard (1992) REMUX 1080p Latino-CMHDD

    2h 9m 1992

    Descargar The Bodyguard (1992) REMUX 1080p Latino-CMHDD. Una cantante famosa que recibe constantes cartas...

    Director: Mick Jackson

    Género: Acción

    Actores: Whitney Houston

  • One Day (2011) REMUX 1080p Latino-CMHDD

    One Day (2011) REMUX 1080p Latino-CMHDD

    2011
    One Day (2011) REMUX 1080p Latino-CMHDD

    1h 43m 2011

    Descargar One Day (2011) REMUX 1080p Latino-CMHDD. Emma y Dexter se conocen el día de su graduación...

    Director: Maj-Britt La Cour

    Género: Drama

    Actores: Ukweli Roach

descargar Un Lugar En Silencio Parte II (2021) REMUX 1080p Latino Full 1080p 1080p gratis, Un Lugar En Silencio Parte II (2021) REMUX 1080p Latino Full 1080p mega 1 link, Un Lugar En Silencio Parte II (2021) REMUX 1080p Latino Full 1080p pelicula completa, descargar Un Lugar En Silencio Parte II (2021) REMUX 1080p Latino Full 1080p gratis en mega.

Un Lugar En Silencio Parte II (2021) REMUX 1080p Latino pelicula full hd, Un Lugar En Silencio Parte II (2021) REMUX 1080p Latino mega latino, Un Lugar En Silencio Parte II (2021) REMUX 1080p Latino 4k latino, Un Lugar En Silencio Parte II (2021) REMUX 1080p Latino pelicula completa, Un Lugar En Silencio Parte II (2021) REMUX 1080p Latino descargar gratis, descargar Un Lugar En Silencio Parte II (2021) REMUX 1080p Latino pelicula latino, Un Lugar En Silencio Parte II (2021) REMUX 1080p Latino 1 link mega, Un Lugar En Silencio Parte II (2021) REMUX 1080p Latino 1 link google drive, Un Lugar En Silencio Parte II (2021) REMUX 1080p Latino hd 1080p latino.
Comentarios 0