Un Lugar En Silencio Parte II (2021) PLACEBO Full HD 1080p Latino

18 vistas
1 estrella2 estrellas3 estrellas4 estrellas5 estrellas (1 votos, promedio: 5,00 de 5)
Cargando...

Información de Un Lugar En Silencio Parte II (2021) PLACEBO Full HD 1080p Latino

Datos de la película

  • Calidad: Full 1080p
  • Audio: Español Latino AC3 5.1 BLURAY - Ingles AC3 5.1 BLURAY
  • Subtitulos: Español Latino PGS - Ingles PGS
  • Resolución: 1920x1080p
  • Formato: MKV
  • Codec: H.264
  • Encoder: Melkor
  • Mediainfo: Clic para Mostrar Datos Ver
  • Un Lugar En Silencio Parte II (2021) PLACEBO 1080p Español LATINO-CMHDD.mkv
    Format                      : Matroska
    Format version              : Version 4
    File size                   : 7.58 GiB
    Duration                    : 1 h 37 min
    Overall bit rate            : 11.2 Mb/s
    Movie name                  : A Quiet Place Part II (2021) CinemaniaHDD.Net
    Encoded date                : UTC 2021-07-16 23:51:52
    Writing application         : mkvmerge v56.1.0 ('My Friend') 64-bit
    Writing library             : libebml v1.4.2 + libmatroska v1.6.4
    Attachments                 : CINEMANIAHD.png

    Video
    ID                          : 1
    Format                      : AVC
    Format/Info                 : Advanced Video Codec
    Format profile              : High@L4.1
    Format settings             : CABAC / 4 Ref Frames
    Format settings, CABAC      : Yes
    Format settings, Reference  : 4 frames
    Codec ID                    : V_MPEG4/ISO/AVC
    Duration                    : 1 h 37 min
    Bit rate                    : 9 892 kb/s
    Width                       : 1 920 pixels
    Height                      : 1 080 pixels
    Display aspect ratio        : 16:9
    Frame rate mode             : Constant
    Frame rate                  : 23.976 (24000/1001) FPS
    Color space                 : YUV
    Chroma subsampling          : 4:2:0
    Bit depth                   : 8 bits
    Scan type                   : Progressive
    Bits/(Pixel*Frame)          : 0.199
    Stream size                 : 6.70 GiB (88%)
    Title                       : Full HD1080p [CinemaniaHDD]
    Writing library             : x264 core 157 r2935 545de2f
    Encoding settings           : cabac=1 / ref=4 / deblock=1:0:0 / analyse=0x3:0x133 / me=tesa / subme=11 / psy=1 / psy_rd=1.00:0.00 / mixed_ref=1 / me_range=24 / chroma_me=1 / trellis=2 / 8x8dct=1 / cqm=0 / deadzone=21,11 / fast_pskip=0 / chroma_qp_offset=-2 / threads=24 / lookahead_threads=6 / sliced_threads=0 / nr=0 / decimate=1 / interlaced=0 / bluray_compat=0 / constrained_intra=0 / bframes=16 / b_pyramid=2 / b_adapt=2 / b_bias=0 / direct=3 / weightb=1 / open_gop=0 / weightp=2 / keyint=240 / keyint_min=24 / scenecut=40 / intra_refresh=0 / rc_lookahead=60 / rc=crf / mbtree=1 / crf=18.0 / qcomp=0.60 / qpmin=0 / qpmax=69 / qpstep=4 / vbv_maxrate=62500 / vbv_bufsize=78125 / crf_max=0.0 / nal_hrd=none / filler=0 / ip_ratio=1.40 / aq=1:1.00
    Default                     : Yes
    Forced                      : Yes
    Color range                 : Limited
    Color primaries             : BT.709
    Transfer characteristics    : BT.709
    Matrix coefficients         : BT.709

    Audio #1
    ID                          : 2
    Format                      : AC-3
    Format/Info                 : Audio Coding 3
    Commercial name             : Dolby Digital
    Codec ID                    : A_AC3
    Duration                    : 1 h 37 min
    Bit rate mode               : Constant
    Bit rate                    : 640 kb/s
    Channel(s)                  : 6 channels
    Channel layout              : L R C LFE Ls Rs
    Sampling rate               : 48.0 kHz
    Frame rate                  : 31.250 FPS (1536 SPF)
    Compression mode            : Lossy
    Stream size                 : 444 MiB (6%)
    Title                       : Español Latino [CinemaniaHDD]
    Language                    : Spanish
    Service kind                : Complete Main
    Default                     : Yes
    Forced                      : Yes

    Audio #2
    ID                          : 3
    Format                      : AC-3
    Format/Info                 : Audio Coding 3
    Commercial name             : Dolby Digital
    Codec ID                    : A_AC3
    Duration                    : 1 h 37 min
    Bit rate mode               : Constant
    Bit rate                    : 640 kb/s
    Channel(s)                  : 6 channels
    Channel layout              : L R C LFE Ls Rs
    Sampling rate               : 48.0 kHz
    Frame rate                  : 31.250 FPS (1536 SPF)
    Compression mode            : Lossy
    Stream size                 : 444 MiB (6%)
    Title                       : Ingles AC3 [CinemaniaHDD]
    Language                    : English
    Service kind                : Complete Main
    Default                     : No
    Forced                      : No

    Text #1
    ID                          : 4
    Format                      : PGS
    Muxing mode                 : zlib
    Codec ID                    : S_HDMV/PGS
    Codec ID/Info               : Picture based subtitle format used on BDs/HD-DVDs
    Duration                    : 1 h 35 min
    Bit rate                    : 1 008 b/s
    Count of elements           : 184
    Stream size                 : 707 KiB (0%)
    Title                       : Forzados-PGS [CinemaniaHDD]
    Language                    : Spanish
    Default                     : Yes
    Forced                      : No

    Text #2
    ID                          : 5
    Format                      : PGS
    Muxing mode                 : zlib
    Codec ID                    : S_HDMV/PGS
    Codec ID/Info               : Picture based subtitle format used on BDs/HD-DVDs
    Duration                    : 1 h 35 min
    Bit rate                    : 6 774 b/s
    Count of elements           : 665
    Stream size                 : 4.64 MiB (0%)
    Title                       : Español-PGS [CinemaniaHDD]
    Language                    : Spanish
    Default                     : No
    Forced                      : No

    Text #3
    ID                          : 6
    Format                      : PGS
    Muxing mode                 : zlib
    Codec ID                    : S_HDMV/PGS
    Codec ID/Info               : Picture based subtitle format used on BDs/HD-DVDs
    Duration                    : 1 h 26 min
    Bit rate                    : 13.0 kb/s
    Count of elements           : 1153
    Stream size                 : 8.08 MiB (0%)
    Title                       : Ingles-PGS [CinemaniaHDD]
    Language                    : English
    Default                     : No
    Forced                      : No

    Text #4
    ID                          : 7
    Format                      : UTF-8
    Codec ID                    : S_TEXT/UTF8
    Codec ID/Info               : UTF-8 Plain Text
    Duration                    : 1 h 35 min
    Bit rate                    : 2 b/s
    Count of elements           : 90
    Stream size                 : 1.60 KiB (0%)
    Title                       : Forzados-SRT [CinemaniaHDD]
    Language                    : Spanish
    Default                     : No
    Forced                      : No

    Text #5
    ID                          : 8
    Format                      : UTF-8
    Codec ID                    : S_TEXT/UTF8
    Codec ID/Info               : UTF-8 Plain Text
    Duration                    : 1 h 24 min
    Bit rate                    : 12 b/s
    Count of elements           : 328
    Stream size                 : 7.59 KiB (0%)
    Title                       : Español-SRT [CinemaniaHDD]
    Language                    : Spanish
    Default                     : No
    Forced                      : No

    Menu
    00:00:00.000                : :Chapter 01
    00:06:39.190                : :Chapter 02
    00:12:16.319                : :Chapter 03
    00:17:00.269                : :Chapter 04
    00:26:28.170                : :Chapter 05
    00:33:26.338                : :Chapter 06
    00:38:06.701                : :Chapter 07
    00:45:53.751                : :Chapter 08
    00:51:18.033                : :Chapter 09
    00:55:35.916                : :Chapter 10
    01:02:21.279                : :Chapter 11
    01:08:43.828                : :Chapter 12
    01:16:31.921                : :Chapter 13
    01:21:25.881                : :Chapter 14
    01:28:12.996                : :Chapter 15

  • Peso: 7.58 GiB

Sinopsis

Descargar Un Lugar En Silencio Parte II (2021) PLACEBO Full HD 1080p Latino. Tras los fatales acontecimientos sucedidos en la primera parte, la familia Abbot debe enfrentarse a los peligros del mundo exterior mientras luchan en silencio por sobrevivir. Forzados a aventurarse en lo desconocido, pronto se dan cuenta de que las criaturas que cazan orientadas por el sonido no son la única amenaza que acecha más allá del camino de arena. Secuela de la exitosa producción «Un lugar tranquilo» (A Quiet Place, 2018).

Ficha técnica

Video trailer de la película

Enlaces de descarga

Rip de Bluray

Descargar Un Lugar En Silencio Parte II (2021) PLACEBO Full HD 1080p Latino




Aportes de DPeliculasHDmega la pass es:dpeliculashdmega.org Aportes de CinemaniaHD la pass es:cinemaniahdd.com

Películas relacionadas

  • Howard the Duck (1986) REMUX 1080p Latino – CMHDD

    Howard the Duck (1986) REMUX 1080p Latino – CMHDD

    1986
    Howard the Duck (1986) REMUX 1080p Latino – CMHDD

    0.0 1h 51m 1986

    Desde un lejano planeta, y debido a un error de un laboratorio espacial, llega a La Tierra teletransportado...

    Director: Willard Huyck

    Género: Ciencia ficción

    Actores: Wood Moy

  • Space Jam (1996) REMUX 1080p Latino – CMHDD

    Space Jam (1996) REMUX 1080p Latino – CMHDD

    1996
    Space Jam (1996) REMUX 1080p Latino – CMHDD

    0.0 1h 27m 1996

    Bugs Bunny y su equipo desafían a los Nerdlucks (un grupo de pequeños extraterrestres) a un partido...

    Director: Pamela Cederquist

    Género: Animación

    Actores: William G. Schilling

  • The Hatred (2017) WEB-DL 1080p Latino

    The Hatred (2017) WEB-DL 1080p Latino

    2017
    The Hatred (2017) WEB-DL 1080p Latino

    5.0 1h 34m 2017

    Cuatro mujeres jóvenes viajan a la nueva casa de campo de su profesor universitario para una escapada...

    Director: Michael G. Kehoe

    Género: Suspenso

    Actores: Tim DeZarn

  • Servants of War (2019) WEB-DL 1080p Latino

    Servants of War (2019) WEB-DL 1080p Latino

    2019
    Servants of War (2019) WEB-DL 1080p Latino

    5.0 1h 38m 2019

    El conocido profesor Professor Jerzy Abramski es asesinado. De su investigación se encarga el inspector...

    Director: Mariusz Gawryś

    Género: Crimen

    Actores: Zbigniew Stryj

Un Lugar En Silencio Parte II (2021) PLACEBO Full HD 1080p Latino pelicula full hd, Un Lugar En Silencio Parte II (2021) PLACEBO Full HD 1080p Latino mega latino, Un Lugar En Silencio Parte II (2021) PLACEBO Full HD 1080p Latino 4k latino, Un Lugar En Silencio Parte II (2021) PLACEBO Full HD 1080p Latino pelicula completa, Un Lugar En Silencio Parte II (2021) PLACEBO Full HD 1080p Latino descargar gratis, descargar Un Lugar En Silencio Parte II (2021) PLACEBO Full HD 1080p Latino pelicula latino, Un Lugar En Silencio Parte II (2021) PLACEBO Full HD 1080p Latino 1 link mega, Un Lugar En Silencio Parte II (2021) PLACEBO Full HD 1080p Latino 1 link google drive, Un Lugar En Silencio Parte II (2021) PLACEBO Full HD 1080p Latino hd 1080p latino.