Un lugar en silencio (2018) WEB-DL 1080p Latino

2.135 vistas
1 estrella2 estrellas3 estrellas4 estrellas5 estrellas (1 votos, promedio: 5,00 de 5)
Cargando…

Información de Un lugar en silencio (2018) WEB-DL 1080p Latino

Datos de la película

  • Calidad: WEBDL
  • Audio: Español Latino AC3 2.0 iTunes - Ingles AC3 5.1 iTunes
  • Subtitulos: Español Latino SRT- FORZADOS SRT
  • Resolución: 1920x800p
  • Formato: MKV
  • Codec: H.264
  • Encoder: FGT
  • Mediainfo: Clic para Mostrar Datos Ver
  • Format                                   : Matroska
    Format version                           : Version 4 / Version 2
    File size                                : 3.29 GiB
    Duration                                 : 1 h 30 min
    Overall bit rate                         : 5 197 kb/s
    Movie name                               : CinemaniaHDD.net
    Encoded date                             : UTC 2018-06-26 08:08:07
    Writing application                      : mkvmerge v15.0.0 ('Duel with the Devil') 64-bit
    Writing library                          : libebml v1.3.5 + libmatroska v1.4.5

    Video
    ID                                       : 1
    Format                                   : AVC
    Format/Info                              : Advanced Video Codec
    Format profile                           : [email protected]
    Format settings                          : CABAC / 5 Ref Frames
    Format settings, CABAC                   : Yes
    Format settings, RefFrames               : 5 frames
    Codec ID                                 : V_MPEG4/ISO/AVC
    Duration                                 : 1 h 30 min
    Bit rate                                 : 4 557 kb/s
    Width                                    : 1 920 pixels
    Height                                   : 800 pixels
    Display aspect ratio                     : 2.40:1
    Frame rate mode                          : Constant
    Frame rate                               : 23.976 FPS
    Color space                              : YUV
    Chroma subsampling                       : 4:2:0
    Bit depth                                : 8 bits
    Scan type                                : Progressive
    Bits/(Pixel*Frame)                       : 0.124
    Stream size                              : 2.89 GiB (88%)
    Title                                    : Un lugar en silencio (2018) WEB-DL 1080p Latino
    Language                                 : English
    Default                                  : Yes
    Forced                                   : No
    Color range                              : Limited
    Color primaries                          : BT.709
    Transfer characteristics                 : BT.709
    Matrix coefficients                      : BT.709

    Audio #1
    ID                                       : 2
    Format                                   : AC-3
    Format/Info                              : Audio Coding 3
    Format settings, Endianness              : Big
    Codec ID                                 : A_AC3
    Duration                                 : 1 h 30 min
    Bit rate mode                            : Constant
    Bit rate                                 : 256 kb/s
    Channel(s)                               : 2 channels
    Channel positions                        : Front: L R
    Sampling rate                            : 48.0 kHz
    Frame rate                               : 31.250 FPS (1536 SPF)
    Bit depth                                : 16 bits
    Compression mode                         : Lossy
    Delay relative to video                  : -43 ms
    Stream size                              : 165 MiB (5%)
    Language                                 : Spanish
    Service kind                             : Complete Main
    Default                                  : Yes
    Forced                                   : No

    Audio #2
    ID                                       : 3
    Format                                   : AC-3
    Format/Info                              : Audio Coding 3
    Format settings, Endianness              : Big
    Codec ID                                 : A_AC3
    Duration                                 : 1 h 30 min
    Bit rate mode                            : Constant
    Bit rate                                 : 384 kb/s
    Channel(s)                               : 6 channels
    Channel positions                        : Front: L C R, Side: L R, LFE
    Sampling rate                            : 48.0 kHz
    Frame rate                               : 31.250 FPS (1536 SPF)
    Bit depth                                : 16 bits
    Compression mode                         : Lossy
    Delay relative to video                  : -43 ms
    Stream size                              : 248 MiB (7%)
    Language                                 : English
    Service kind                             : Complete Main
    Default                                  : No
    Forced                                   : No

    Text #1
    ID                                       : 4
    Format                                   : UTF-8
    Codec ID                                 : S_TEXT/UTF8
    Codec ID/Info                            : UTF-8 Plain Text
    Duration                                 : 1 h 29 min
    Bit rate                                 : 3 b/s
    Count of elements                        : 105
    Stream size                              : 2.19 KiB (0%)
    Title                                    : Forzados
    Language                                 : Spanish
    Default                                  : Yes
    Forced                                   : Yes

    Text #2
    ID                                       : 5
    Format                                   : UTF-8
    Codec ID                                 : S_TEXT/UTF8
    Codec ID/Info                            : UTF-8 Plain Text
    Duration                                 : 1 h 29 min
    Bit rate                                 : 5 b/s
    Count of elements                        : 158
    Stream size                              : 3.32 KiB (0%)
    Language                                 : Spanish
    Default                                  : No
    Forced                                   : No

    Text #3
    ID                                       : 6
    Format                                   : UTF-8
    Codec ID                                 : S_TEXT/UTF8
    Codec ID/Info                            : UTF-8 Plain Text
    Duration                                 : 54 min 21 s
    Bit rate                                 : 2 b/s
    Count of elements                        : 55
    Stream size                              : 1.08 KiB (0%)
    Language                                 : English
    Default                                  : No
    Forced                                   : No

    Menu
    00:00:00.000                             : en:1
    00:10:17.000                             : en:2
    00:14:36.000                             : en:3
    00:21:50.000                             : en:4
    00:25:07.000                             : en:5
    00:31:02.000                             : en:6
    00:36:20.000                             : en:7
    00:43:43.000                             : en:8
    00:47:39.000                             : en:9
    00:53:44.000                             : en:10
    01:00:27.000                             : en:11
    01:05:50.000                             : en:12
    01:10:52.000                             : en:13
    01:15:23.000                             : en:14
    01:23:41.000                             : en:15

  • Peso: 3.29 GiB

Sinopsis

Evelyn y Lee Abbott son una pareja con tres hijos que vive una granja aislada de toda civilización al norte de Nueva York. Esta familia ha sobrevivido durante meses en un mundo invadido y amenazado por mortales criaturas extraterrestres que se guían por el sonido para cazar. En este contexto en el que una palabra puede significar la muerte, la familia Abbott vive silenciosamente, andan descalzos y se comunican por medio del lenguaje de señas.

Ficha técnica

Video trailer de la película

Enlaces de descarga

Rip de Bluray

Descargar Un lugar en silencio (2018) WEB-DL 1080p Latino




Aportes de DPeliculasHDmega la pass es:dpeliculashdmega.org Aportes de CinemaniaHD la pass es:cinemaniahdd.com
Guardado en : Ciencia ficción , Drama , Suspenso , Terror

Películas relacionadas

  • Eliminar Amigo 2 (2018) 1080p Latino

    2018
    Eliminar Amigo 2 (2018) 1080p Latino

    4.0 1h 35m 2018

    Un adolescente adquiere una laptop nueva y pronto descubre que el propietario anterior no solo le está...

    Director: Stephen Susco

    Género: Terror

    Actores: Stephanie Nogueras

  • Yo, robot (2004) REMUX (Open Matte) 1080p Latino

    2004
    Yo, robot (2004) REMUX (Open Matte) 1080p Latino

    3.7 2h 3m 2004

    En el año 2035, los robots son unos dispositivos que usamos todos los días y en quienes confiamos,...

    Director: Tracey Poirier

    Género: Acción

    Actores: Will Smith

Comentarios 1