×

¿Problemas para descargar con Mozilla, EDGE? Deshabilita la opción "Abrir vinculos en una pestaña nueva" tal como lo muestra ésta imagen.

Un jefe en pañales 2: Negocios de familia (2021) REMUX 1080p Latino

125 vistas

Información de Un jefe en pañales 2: Negocios de familia (2021) REMUX 1080p Latino

Datos de la película

  • Calidad: Full 1080p
  • Audio: Se especifica abajo de la Sinopsis
  • Subtitulos: Español Latino PGS - Ingles PGS
  • Resolución: 1920x1080
  • Formato: MKV
  • Codec: H.264
  • Encoder: Melkor
  • Mediainfo: Clic para Mostrar Datos Ver
  • Un Jefe En Pañales 2 Negocios De Familia (2021) REMUX 1080p Latino.mkv
    Format                      : Matroska
    Format version              : Version 4
    File size                   : 26.6 GiB
    Duration                    : 1 h 47 min
    Overall bit rate mode       : Variable
    Overall bit rate            : 35.5 Mb/s
    Movie name                  : The Boss Baby: Family Business (2021) CinemaniaHDD.Net
    Encoded date                : UTC 2021-09-14 21:22:07
    Writing application         : mkvmerge v56.1.0 ('My Friend') 64-bit
    Writing library             : libebml v1.4.2 + libmatroska v1.6.4
    Attachments                 : CINEMANIAHD.png

    Video
    ID                          : 1
    ID in the original source m : 4113 (0x1011)
    Format                      : AVC
    Format/Info                 : Advanced Video Codec
    Format profile              : High@L4.1
    Format settings             : CABAC / 2 Ref Frames
    Format settings, CABAC      : Yes
    Format settings, Reference  : 2 frames
    Format settings, GOP        : M=1, N=10
    Codec ID                    : V_MPEG4/ISO/AVC
    Duration                    : 1 h 47 min
    Bit rate mode               : Variable
    Bit rate                    : 30.3 Mb/s
    Width                       : 1 920 pixels
    Height                      : 1 080 pixels
    Display aspect ratio        : 16:9
    Frame rate mode             : Constant
    Frame rate                  : 23.976 (24000/1001) FPS
    Color space                 : YUV
    Chroma subsampling          : 4:2:0
    Bit depth                   : 8 bits
    Scan type                   : Progressive
    Bits/(Pixel*Frame)          : 0.610
    Stream size                 : 22.7 GiB (85%)
    Title                       : REMUX HD1080p [CinemaniaHDD]
    Default                     : Yes
    Forced                      : Yes
    Original source medium      : Blu-ray

    Audio #1
    ID                          : 2
    ID in the original source m : 4353 (0x1101)
    Format                      : E-AC-3
    Format/Info                 : Enhanced AC-3
    Commercial name             : Dolby Digital Plus
    Format profile              : Blu-ray Disc
    Codec ID                    : A_EAC3
    Duration                    : 1 h 47 min
    Bit rate mode               : Constant
    Bit rate                    : 768 kb/s
    Channel(s)                  : 8 channels
    Channel layout              : L R C LFE Ls Rs Lb Rb
    Sampling rate               : 48.0 kHz
    Frame rate                  : 31.250 FPS (1536 SPF)
    Compression mode            : Lossy
    Stream size                 : 589 MiB (2%)
    Title                       : Español Latino DDP [CinemaniaHDD]
    Language                    : Spanish
    Service kind                : Complete Main
    Default                     : Yes
    Forced                      : Yes
    Original source medium      : Blu-ray

    Audio #2
    ID                          : 3
    ID in the original source m : 4352 (0x1100)
    Format                      : MLP FBA 16-ch
    Format/Info                 : Meridian Lossless Packing FBA with 16-channel presentation
    Commercial name             : Dolby TrueHD with Dolby Atmos
    Codec ID                    : A_TRUEHD
    Duration                    : 1 h 47 min
    Bit rate mode               : Variable
    Bit rate                    : 3 200 kb/s
    Maximum bit rate            : 5 106 kb/s
    Channel(s)                  : 8 channels
    Channel layout              : L R C LFE Ls Rs Lb Rb
    Sampling rate               : 48.0 kHz
    Frame rate                  : 1 200.000 FPS (40 SPF)
    Compression mode            : Lossless
    Stream size                 : 2.40 GiB (9%)
    Title                       : Ingles THD [CinemaniaHDD]
    Language                    : English
    Default                     : No
    Forced                      : No
    Original source medium      : Blu-ray
    Number of dynamic objects   : 11
    Bed channel count           : 1 channel
    Bed channel configuration   : LFE

    Audio #3
    ID                          : 4
    Format                      : AC-3
    Format/Info                 : Audio Coding 3
    Commercial name             : Dolby Digital
    Codec ID                    : A_AC3
    Duration                    : 1 h 47 min
    Bit rate mode               : Constant
    Bit rate                    : 640 kb/s
    Channel(s)                  : 6 channels
    Channel layout              : L R C LFE Ls Rs
    Sampling rate               : 48.0 kHz
    Frame rate                  : 31.250 FPS (1536 SPF)
    Compression mode            : Lossy
    Stream size                 : 491 MiB (2%)
    Title                       : Español Latino AC3 [CinemaniaHDD]
    Language                    : Spanish
    Service kind                : Complete Main
    Default                     : No
    Forced                      : No

    Audio #4
    ID                          : 5
    ID in the original source m : 4352 (0x1100)
    Format                      : AC-3
    Format/Info                 : Audio Coding 3
    Commercial name             : Dolby Digital
    Codec ID                    : A_AC3
    Duration                    : 1 h 47 min
    Bit rate mode               : Constant
    Bit rate                    : 448 kb/s
    Channel(s)                  : 6 channels
    Channel layout              : L R C LFE Ls Rs
    Sampling rate               : 48.0 kHz
    Frame rate                  : 31.250 FPS (1536 SPF)
    Compression mode            : Lossy
    Stream size                 : 344 MiB (1%)
    Title                       : Ingles AC3 [CinemaniaHDD]
    Language                    : English
    Service kind                : Complete Main
    Default                     : No
    Forced                      : No
    Original source medium      : Blu-ray

    Text #1
    ID                          : 6
    ID in the original source m : 4611 (0x1203)
    Format                      : PGS
    Muxing mode                 : zlib
    Codec ID                    : S_HDMV/PGS
    Codec ID/Info               : Picture based subtitle format used on BDs/HD-DVDs
    Duration                    : 1 h 43 min
    Bit rate                    : 1 467 b/s
    Count of elements           : 78
    Stream size                 : 1.09 MiB (0%)
    Title                       : Forzados-PGS [CinemaniaHDD]
    Language                    : Spanish
    Default                     : No
    Forced                      : No
    Original source medium      : Blu-ray

    Text #2
    ID                          : 7
    ID in the original source m : 4609 (0x1201)
    Format                      : PGS
    Muxing mode                 : zlib
    Codec ID                    : S_HDMV/PGS
    Codec ID/Info               : Picture based subtitle format used on BDs/HD-DVDs
    Duration                    : 1 h 46 min
    Bit rate                    : 51.2 kb/s
    Count of elements           : 4186
    Stream size                 : 38.9 MiB (0%)
    Title                       : Español-PGS [CinemaniaHDD]
    Language                    : Spanish
    Default                     : No
    Forced                      : No
    Original source medium      : Blu-ray

    Text #3
    ID                          : 8
    ID in the original source m : 4608 (0x1200)
    Format                      : PGS
    Muxing mode                 : zlib
    Codec ID                    : S_HDMV/PGS
    Codec ID/Info               : Picture based subtitle format used on BDs/HD-DVDs
    Duration                    : 1 h 40 min
    Bit rate                    : 68.8 kb/s
    Count of elements           : 4920
    Stream size                 : 49.6 MiB (0%)
    Title                       : Ingles-PGS [CinemaniaHDD]
    Language                    : English
    Default                     : No
    Forced                      : No
    Original source medium      : Blu-ray

    Text #4
    ID                          : 9
    Format                      : UTF-8
    Codec ID                    : S_TEXT/UTF8
    Codec ID/Info               : UTF-8 Plain Text
    Duration                    : 1 h 36 min
    Bit rate                    : 2 b/s
    Count of elements           : 44
    Stream size                 : 1.43 KiB (0%)
    Title                       : Forzados-SRT [CinemaniaHDD]
    Language                    : Spanish
    Default                     : Yes
    Forced                      : Yes

    Text #5
    ID                          : 10
    Format                      : UTF-8
    Codec ID                    : S_TEXT/UTF8
    Codec ID/Info               : UTF-8 Plain Text
    Duration                    : 1 h 40 min
    Bit rate                    : 85 b/s
    Count of elements           : 1874
    Stream size                 : 63.3 KiB (0%)
    Title                       : Español-SRT [CinemaniaHDD]
    Language                    : Spanish
    Default                     : No
    Forced                      : No

    Menu
    00:00:00.000                : Chapter 01
    00:04:18.383                : Chapter 02
    00:09:50.673                : Chapter 03
    00:13:43.364                : Chapter 04
    00:19:51.815                : Chapter 05
    00:24:55.118                : Chapter 06
    00:29:12.125                : Chapter 07
    00:34:22.018                : Chapter 08
    00:38:09.245                : Chapter 09
    00:44:36.298                : Chapter 10
    00:51:25.123                : Chapter 11
    01:00:47.852                : Chapter 12
    01:04:54.473                : Chapter 13
    01:08:08.209                : Chapter 14
    01:13:27.403                : Chapter 15
    01:18:38.171                : Chapter 16
    01:22:44.417                : Chapter 17
    01:27:13.436                : Chapter 18
    01:35:06.701                : Chapter 19
    01:38:13.721                : Chapter 20

  • Peso: 26.6 GiB

Sinopsis

Descargar Un jefe en pañales 2: Negocios de familia (2021) REMUX 1080p Latino. Los hermanos Templeton se han convertido en adultos y se han alejado el uno del otro, pero un nuevo jefe bebé con un enfoque de vanguardia está a punto de unirlos nuevamente e inspirar un nuevo negocio familiar.

Español Latino EAC3 7.1 & AC3 5.1 BD – Ingles TrueHD 7.1 & AC3 5.1 BD

Ficha técnica

Video trailer de la película

Enlaces de descarga

Rip de Bluray

Descargar Un jefe en pañales 2: Negocios de familia (2021) REMUX 1080p Latino




Aportes de DPeliculasHDmega la pass es:dpeliculashdmega.org Aportes de CinemaniaHD la pass es:cinemaniahdd.com
Guardado en : Animación , Aventura , Comedia , Familia , Remux

Películas relacionadas

descargar Un jefe en pañales 2: Negocios de familia (2021) REMUX 1080p Latino Full 1080p 1080p gratis, Un jefe en pañales 2: Negocios de familia (2021) REMUX 1080p Latino Full 1080p mega 1 link, Un jefe en pañales 2: Negocios de familia (2021) REMUX 1080p Latino Full 1080p pelicula completa, descargar Un jefe en pañales 2: Negocios de familia (2021) REMUX 1080p Latino Full 1080p gratis en mega.

Un jefe en pañales 2: Negocios de familia (2021) REMUX 1080p Latino pelicula full hd, Un jefe en pañales 2: Negocios de familia (2021) REMUX 1080p Latino mega latino, Un jefe en pañales 2: Negocios de familia (2021) REMUX 1080p Latino 4k latino, Un jefe en pañales 2: Negocios de familia (2021) REMUX 1080p Latino pelicula completa, Un jefe en pañales 2: Negocios de familia (2021) REMUX 1080p Latino descargar gratis, descargar Un jefe en pañales 2: Negocios de familia (2021) REMUX 1080p Latino pelicula latino, Un jefe en pañales 2: Negocios de familia (2021) REMUX 1080p Latino 1 link mega, Un jefe en pañales 2: Negocios de familia (2021) REMUX 1080p Latino 1 link google drive, Un jefe en pañales 2: Negocios de familia (2021) REMUX 1080p Latino hd 1080p latino.
Comentarios 0