Un jefe en pañales 2: Negocios de familia (2021) REMUX 4K UHD HDR Latino

76 vistas
1 estrella2 estrellas3 estrellas4 estrellas5 estrellas (Ninguna valoración todavía)
Cargando...

Información de Un jefe en pañales 2: Negocios de familia (2021) REMUX 4K UHD HDR Latino

Datos de la película

  • Calidad: 4K HDR
  • Audio: Se especifica abajo de la Sinopsis
  • Subtitulos: Español Latino PGS - Ingles PGS
  • Resolución: 3840x2160p
  • Formato: MKV
  • Codec: HEVC
  • Encoder: Melkor
  • Mediainfo: Clic para Mostrar Datos Ver
  • Un Jefe En Pañales 2 Negocios De Familia (2021) REMUX UHD HDR Latino-CMHDD.mkv
    Format                      : Matroska
    Format version              : Version 4
    File size                   : 38.8 GiB
    Duration                    : 1 h 47 min
    Overall bit rate mode       : Variable
    Overall bit rate            : 51.8 Mb/s
    Movie name                  : The Boss Baby - Family Business (2021) CinemaniaHDD.Net
    Encoded date                : UTC 2021-09-15 02:57:49
    Writing application         : mkvmerge v56.1.0 ('My Friend') 64-bit
    Writing library             : libebml v1.4.2 + libmatroska v1.6.4
    Attachments                 : CINEMANIAHD.png

    Video
    ID                          : 1
    ID in the original source m : 4113 (0x1011)
    Format                      : HEVC
    Format/Info                 : High Efficiency Video Coding
    Format profile              : Main 10@L5.1@High
    HDR format                  : Dolby Vision, Version 1.0, dvhe.07.06, BL+EL+RPU, Blu-ray compatible / SMPTE ST 2086, HDR10 compatible
    Codec ID                    : V_MPEGH/ISO/HEVC
    Duration                    : 1 h 47 min
    Bit rate                    : 46.8 Mb/s
    Width                       : 3 840 pixels
    Height                      : 2 160 pixels
    Display aspect ratio        : 16:9
    Frame rate mode             : Constant
    Frame rate                  : 23.976 (24000/1001) FPS
    Color space                 : YUV
    Chroma subsampling          : 4:2:0 (Type 2)
    Bit depth                   : 10 bits
    Bits/(Pixel*Frame)          : 0.235
    Stream size                 : 35.1 GiB (90%)
    Title                       : REMUX 2160p HDR [Bluray]
    Language                    : English
    Default                     : Yes
    Forced                      : Yes
    Color range                 : Limited
    Color primaries             : BT.2020
    Transfer characteristics    : PQ
    Matrix coefficients         : BT.2020 non-constant
    Mastering display color pri : Display P3
    Mastering display luminance : min: 0.0010 cd/m2, max: 1000 cd/m2
    Maximum Content Light Level : 1000 cd/m2
    Maximum Frame-Average Light : 1000 cd/m2
    Original source medium      : Blu-ray

    Audio #1
    ID                          : 2
    Format                      : E-AC-3
    Format/Info                 : Enhanced AC-3
    Commercial name             : Dolby Digital Plus
    Format profile              : Blu-ray Disc
    Codec ID                    : A_EAC3
    Duration                    : 1 h 47 min
    Bit rate mode               : Constant
    Bit rate                    : 768 kb/s
    Channel(s)                  : 8 channels
    Channel layout              : L R C LFE Ls Rs Lb Rb
    Sampling rate               : 48.0 kHz
    Frame rate                  : 31.250 FPS (1536 SPF)
    Compression mode            : Lossy
    Stream size                 : 589 MiB (1%)
    Title                       : Español Latino DDP [CinemaniaHDD]
    Language                    : Spanish
    Service kind                : Complete Main
    Default                     : Yes
    Forced                      : Yes

    Audio #2
    ID                          : 3
    ID in the original source m : 4352 (0x1100)
    Format                      : MLP FBA 16-ch
    Format/Info                 : Meridian Lossless Packing FBA with 16-channel presentation
    Commercial name             : Dolby TrueHD with Dolby Atmos
    Codec ID                    : A_TRUEHD
    Duration                    : 1 h 47 min
    Bit rate mode               : Variable
    Bit rate                    : 3 200 kb/s
    Maximum bit rate            : 5 106 kb/s
    Channel(s)                  : 8 channels
    Channel layout              : L R C LFE Ls Rs Lb Rb
    Sampling rate               : 48.0 kHz
    Frame rate                  : 1 200.000 FPS (40 SPF)
    Bit depth                   : 24 bits
    Compression mode            : Lossless
    Stream size                 : 2.40 GiB (6%)
    Title                       : Ingles [CinemaniaHDD]
    Language                    : English
    Default                     : No
    Forced                      : No
    Original source medium      : Blu-ray
    Number of dynamic objects   : 11
    Bed channel count           : 1 channel
    Bed channel configuration   : LFE

    Audio #3
    ID                          : 4
    ID in the original source m : 4353 (0x1101)
    Format                      : AC-3
    Format/Info                 : Audio Coding 3
    Commercial name             : Dolby Digital
    Codec ID                    : A_AC3
    Duration                    : 1 h 47 min
    Bit rate mode               : Constant
    Bit rate                    : 448 kb/s
    Channel(s)                  : 6 channels
    Channel layout              : L R C LFE Ls Rs
    Sampling rate               : 48.0 kHz
    Frame rate                  : 31.250 FPS (1536 SPF)
    Compression mode            : Lossy
    Stream size                 : 344 MiB (1%)
    Title                       : Español Latino AC3 [CinemaniaHDD]
    Language                    : Spanish
    Service kind                : Complete Main
    Default                     : No
    Forced                      : No
    Original source medium      : Blu-ray

    Audio #4
    ID                          : 5
    ID in the original source m : 4352 (0x1100)
    Format                      : AC-3
    Format/Info                 : Audio Coding 3
    Commercial name             : Dolby Digital
    Codec ID                    : A_AC3
    Duration                    : 1 h 47 min
    Bit rate mode               : Constant
    Bit rate                    : 448 kb/s
    Channel(s)                  : 6 channels
    Channel layout              : L R C LFE Ls Rs
    Sampling rate               : 48.0 kHz
    Frame rate                  : 31.250 FPS (1536 SPF)
    Compression mode            : Lossy
    Stream size                 : 344 MiB (1%)
    Title                       : Ingles AC3 [CinemaniaHDD]
    Language                    : English
    Service kind                : Complete Main
    Default                     : No
    Forced                      : No
    Original source medium      : Blu-ray

    Text #1
    ID                          : 6
    ID in the original source m : 4771 (0x12A3)
    Format                      : PGS
    Muxing mode                 : zlib
    Codec ID                    : S_HDMV/PGS
    Codec ID/Info               : Picture based subtitle format used on BDs/HD-DVDs
    Duration                    : 1 h 43 min
    Bit rate                    : 1 467 b/s
    Count of elements           : 78
    Stream size                 : 1.09 MiB (0%)
    Title                       : Sub_Forzados [PGS]
    Language                    : Spanish
    Default                     : No
    Forced                      : No
    Original source medium      : Blu-ray

    Text #2
    ID                          : 7
    ID in the original source m : 4769 (0x12A1)
    Format                      : PGS
    Muxing mode                 : zlib
    Codec ID                    : S_HDMV/PGS
    Codec ID/Info               : Picture based subtitle format used on BDs/HD-DVDs
    Duration                    : 1 h 46 min
    Bit rate                    : 51.2 kb/s
    Count of elements           : 4186
    Stream size                 : 38.9 MiB (0%)
    Title                       : Sub_Esp [PGS]
    Language                    : Spanish
    Default                     : No
    Forced                      : No
    Original source medium      : Blu-ray

    Text #3
    ID                          : 8
    ID in the original source m : 4768 (0x12A0)
    Format                      : PGS
    Muxing mode                 : zlib
    Codec ID                    : S_HDMV/PGS
    Codec ID/Info               : Picture based subtitle format used on BDs/HD-DVDs
    Duration                    : 1 h 40 min
    Bit rate                    : 68.8 kb/s
    Count of elements           : 4920
    Stream size                 : 49.6 MiB (0%)
    Title                       : Sub_Eng [PGS]
    Language                    : English
    Default                     : No
    Forced                      : No
    Original source medium      : Blu-ray

    Text #4
    ID                          : 9
    Format                      : UTF-8
    Codec ID                    : S_TEXT/UTF8
    Codec ID/Info               : UTF-8 Plain Text
    Duration                    : 1 h 36 min
    Bit rate                    : 2 b/s
    Count of elements           : 44
    Stream size                 : 1.43 KiB (0%)
    Title                       : Sub_Forzados
    Language                    : Spanish
    Default                     : Yes
    Forced                      : Yes

    Text #5
    ID                          : 10
    Format                      : UTF-8
    Codec ID                    : S_TEXT/UTF8
    Codec ID/Info               : UTF-8 Plain Text
    Duration                    : 1 h 40 min
    Bit rate                    : 85 b/s
    Count of elements           : 1874
    Stream size                 : 63.3 KiB (0%)
    Title                       : Sub_Esp
    Language                    : Spanish
    Default                     : No
    Forced                      : No

    Menu
    00:00:00.000                : Chapter 01
    00:04:18.424                : Chapter 02
    00:09:50.673                : Chapter 03
    00:13:43.364                : Chapter 04
    00:19:51.648                : Chapter 05
    00:24:54.951                : Chapter 06
    00:29:12.125                : Chapter 07
    00:34:22.018                : Chapter 08
    00:38:09.203                : Chapter 09
    00:44:36.423                : Chapter 10
    00:51:25.123                : Chapter 11
    01:00:47.977                : Chapter 12
    01:04:54.473                : Chapter 13
    01:08:07.958                : Chapter 14
    01:13:27.111                : Chapter 15
    01:18:38.171                : Chapter 16
    01:22:44.250                : Chapter 17
    01:27:13.353                : Chapter 18
    01:35:06.826                : Chapter 19
    01:38:13.721                : Chapter 20

  • Peso: 38.8 GiB

Sinopsis

Descargar Un jefe en pañales 2: Negocios de familia (2021) REMUX 4K UHD HDR Latino. Los hermanos Templeton se han convertido en adultos y se han alejado el uno del otro, pero un nuevo jefe bebé con un enfoque de vanguardia está a punto de unirlos nuevamente e inspirar un nuevo negocio familiar.

Español Latino EAC3 7.1 & AC3 5.1 BD – Ingles TrueHD 7.1 & AC3 5.1 BD

Disponible Solo Para VIP!!! 🙂

Ficha técnica

Video trailer de la película

Enlaces de descarga

Rip de Bluray

Descargar Un jefe en pañales 2: Negocios de familia (2021) REMUX 4K UHD HDR Latino


Aportes de DPeliculasHDmega la pass es:dpeliculashdmega.org Aportes de CinemaniaHD la pass es:cinemaniahdd.com
Guardado en : 4K HDR , 4K UHD , Animación , Aventura , Comedia , Familia , Remux

Películas relacionadas

  • Afuera Del Tiempo (2019) AMZN WEB-DL 1080p Latino

    Afuera Del Tiempo (2019) AMZN WEB-DL 1080p Latino

    2019
    Afuera Del Tiempo (2019) AMZN WEB-DL 1080p Latino

    0.0 1h 21m 2019

    Ricardo siempre le ha terminado a todas sus novias, pero una se le adelanta justo, cuando él le propone...

    Director: Marco Vélez Esquivia

    Género: Ciencia ficción

    Actores: Walter Luengas

  • Chucky (2021) Temporada 1 WEB-DL 1080p latino

    Chucky (2021) Temporada 1 WEB-DL 1080p latino

    2021
    Chucky (2021) Temporada 1 WEB-DL 1080p latino

    4.5 0h 46m 2021

    Después de que un muñeco vintage de Chucky aparece en una venta de patio suburbana, una ciudad...

    Director: Nick Antosca

    Género: Comedia

    Actores: Zackary Arthur

  • Hawkeye (2021) Temporada 1 Web-DL 4K UHD HDR Latino

    Hawkeye (2021) Temporada 1 Web-DL 4K UHD HDR Latino

    2021
    Hawkeye (2021) Temporada 1 Web-DL 4K UHD HDR Latino

    1.0 0h 0m 2021

    Descargar Hawkeye (2021) Temporada 1 Web-DL 4K UHD HDR Latino. "Hawkeye", de Marvel Studios, es una nueva...

    Director: Jonathan Igla

    Género: 4K HDR

    Actores: Zahn McClarnon

  • Hawkeye (2021) Temporada 1 WEB-DL 1080p Latino

    Hawkeye (2021) Temporada 1 WEB-DL 1080p Latino

    2021
    Hawkeye (2021) Temporada 1 WEB-DL 1080p Latino

    5.0 0h 0m 2021

    Descargar Hawkeye (2021) Temporada 1 WEB-DL 1080p Latino. "Hawkeye", de Marvel Studios, es una nueva...

    Director: Jonathan Igla

    Género: Acción

    Actores: Zahn McClarnon

Un jefe en pañales 2: Negocios de familia (2021) REMUX 4K UHD HDR Latino pelicula full hd, Un jefe en pañales 2: Negocios de familia (2021) REMUX 4K UHD HDR Latino mega latino, Un jefe en pañales 2: Negocios de familia (2021) REMUX 4K UHD HDR Latino 4k latino, Un jefe en pañales 2: Negocios de familia (2021) REMUX 4K UHD HDR Latino pelicula completa, Un jefe en pañales 2: Negocios de familia (2021) REMUX 4K UHD HDR Latino descargar gratis, descargar Un jefe en pañales 2: Negocios de familia (2021) REMUX 4K UHD HDR Latino pelicula latino, Un jefe en pañales 2: Negocios de familia (2021) REMUX 4K UHD HDR Latino 1 link mega, Un jefe en pañales 2: Negocios de familia (2021) REMUX 4K UHD HDR Latino 1 link google drive, Un jefe en pañales 2: Negocios de familia (2021) REMUX 4K UHD HDR Latino hd 1080p latino.
Comentarios 0