×

¿Problemas para descargar con Mozilla, EDGE? Deshabilita la opción "Abrir vinculos en una pestaña nueva" tal como lo muestra ésta imagen.

Un jefe en pañales 2: Negocios de familia (2021) HD 1080p Latino

161 vistas

Información de Un jefe en pañales 2: Negocios de familia (2021) HD 1080p Latino

Datos de la película

  • Calidad: 1080p
  • Audio: Español Latino AC3 5.1 BLURAY - Ingles AC3 5.1 BLURAY
  • Subtitulos: Español Latino SRT- FORZADOS SRT
  • Resolución: 1920x804p
  • Formato: MKV
  • Codec: H.264
  • Encoder: Melkor
  • Mediainfo: Clic para Mostrar Datos Ver
  • Un Jefe En Pañales 2 Negocios De Familia (2021) HD 1080p Latino.mkv
    Format                      : Matroska
    Format version              : Version 4
    File size                   : 3.55 GiB
    Duration                    : 1 h 47 min
    Overall bit rate            : 4 740 kb/s
    Movie name                  : The Boss Baby: Family Business (2021) CinemaniaHDD.Net
    Encoded date                : UTC 2021-09-15 02:04:17
    Writing application         : mkvmerge v56.1.0 ('My Friend') 64-bit
    Writing library             : libebml v1.4.2 + libmatroska v1.6.4
    Attachments                 : CINEMANIAHD.png

    Video
    ID                          : 1
    Format                      : AVC
    Format/Info                 : Advanced Video Codec
    Format profile              : High@L4.1
    Format settings             : CABAC / 5 Ref Frames
    Format settings, CABAC      : Yes
    Format settings, Reference  : 5 frames
    Codec ID                    : V_MPEG4/ISO/AVC
    Duration                    : 1 h 47 min
    Bit rate                    : 3 650 kb/s
    Width                       : 1 920 pixels
    Height                      : 804 pixels
    Display aspect ratio        : 2.40:1
    Frame rate mode             : Constant
    Frame rate                  : 23.976 (24000/1001) FPS
    Color space                 : YUV
    Chroma subsampling          : 4:2:0
    Bit depth                   : 8 bits
    Scan type                   : Progressive
    Bits/(Pixel*Frame)          : 0.099
    Stream size                 : 2.73 GiB (77%)
    Title                       : HD1080p [CinemaniaHDD]
    Writing library             : x264 core 163 r3059 b684ebe0
    Encoding settings           : cabac=1 / ref=5 / deblock=1:1:1 / analyse=0x3:0x133 / me=umh / subme=9 / psy=1 / psy_rd=0.40:0.00 / mixed_ref=1 / me_range=16 / chroma_me=1 / trellis=2 / 8x8dct=1 / cqm=0 / deadzone=21,11 / fast_pskip=1 / chroma_qp_offset=-2 / threads=24 / lookahead_threads=2 / sliced_threads=0 / nr=0 / decimate=1 / interlaced=0 / bluray_compat=0 / constrained_intra=0 / bframes=5 / b_pyramid=2 / b_adapt=2 / b_bias=0 / direct=3 / weightb=1 / open_gop=0 / weightp=2 / keyint=240 / keyint_min=24 / scenecut=40 / intra_refresh=0 / rc_lookahead=60 / rc=crf / mbtree=1 / crf=21.0 / qcomp=0.60 / qpmin=0 / qpmax=69 / qpstep=4 / vbv_maxrate=62500 / vbv_bufsize=78125 / crf_max=0.0 / nal_hrd=none / filler=0 / ip_ratio=1.40 / aq=1:0.60
    Default                     : Yes
    Forced                      : Yes
    Color range                 : Limited
    Color primaries             : BT.709
    Transfer characteristics    : BT.709
    Matrix coefficients         : BT.709

    Audio #1
    ID                          : 2
    Format                      : AC-3
    Format/Info                 : Audio Coding 3
    Commercial name             : Dolby Digital
    Codec ID                    : A_AC3
    Duration                    : 1 h 47 min
    Bit rate mode               : Constant
    Bit rate                    : 640 kb/s
    Channel(s)                  : 6 channels
    Channel layout              : L R C LFE Ls Rs
    Sampling rate               : 48.0 kHz
    Frame rate                  : 31.250 FPS (1536 SPF)
    Compression mode            : Lossy
    Delay relative to video     : -5 ms
    Stream size                 : 491 MiB (14%)
    Title                       : Español Latino [CinemaniaHDD]
    Language                    : Spanish
    Service kind                : Complete Main
    Default                     : Yes
    Forced                      : Yes

    Audio #2
    ID                          : 3
    ID in the original source m : 4352 (0x1100)
    Format                      : AC-3
    Format/Info                 : Audio Coding 3
    Commercial name             : Dolby Digital
    Codec ID                    : A_AC3
    Duration                    : 1 h 47 min
    Bit rate mode               : Constant
    Bit rate                    : 448 kb/s
    Channel(s)                  : 6 channels
    Channel layout              : L R C LFE Ls Rs
    Sampling rate               : 48.0 kHz
    Frame rate                  : 31.250 FPS (1536 SPF)
    Compression mode            : Lossy
    Delay relative to video     : -5 ms
    Stream size                 : 344 MiB (9%)
    Title                       : Ingles [CinemaniaHDD]
    Language                    : English
    Service kind                : Complete Main
    Default                     : No
    Forced                      : No
    Original source medium      : Blu-ray

    Text #1
    ID                          : 4
    Format                      : UTF-8
    Codec ID                    : S_TEXT/UTF8
    Codec ID/Info               : UTF-8 Plain Text
    Duration                    : 1 h 36 min
    Bit rate                    : 2 b/s
    Count of elements           : 44
    Stream size                 : 1.43 KiB (0%)
    Title                       : Forzados-SRT [CinemaniaHDD]
    Language                    : Spanish
    Default                     : Yes
    Forced                      : Yes

    Text #2
    ID                          : 5
    Format                      : UTF-8
    Codec ID                    : S_TEXT/UTF8
    Codec ID/Info               : UTF-8 Plain Text
    Duration                    : 1 h 40 min
    Bit rate                    : 85 b/s
    Count of elements           : 1874
    Stream size                 : 63.3 KiB (0%)
    Title                       : Español-SRT [CinemaniaHDD]
    Language                    : Spanish
    Default                     : No
    Forced                      : No

    Text #3
    ID                          : 6
    Format                      : UTF-8
    Codec ID                    : S_TEXT/UTF8
    Codec ID/Info               : UTF-8 Plain Text
    Duration                    : 1 h 40 min
    Bit rate                    : 87 b/s
    Count of elements           : 2184
    Stream size                 : 64.5 KiB (0%)
    Title                       : Ingles-SRT [CinemaniaHDD]
    Language                    : English
    Default                     : No
    Forced                      : No

    Menu
    00:00:00.000                : Chapter 01
    00:04:18.383                : Chapter 02
    00:09:50.673                : Chapter 03
    00:13:43.364                : Chapter 04
    00:19:51.815                : Chapter 05
    00:24:55.118                : Chapter 06
    00:29:12.125                : Chapter 07
    00:34:22.018                : Chapter 08
    00:38:09.245                : Chapter 09
    00:44:36.298                : Chapter 10
    00:51:25.123                : Chapter 11
    01:00:47.852                : Chapter 12
    01:04:54.473                : Chapter 13
    01:08:08.209                : Chapter 14
    01:13:27.403                : Chapter 15
    01:18:38.171                : Chapter 16
    01:22:44.417                : Chapter 17
    01:27:13.436                : Chapter 18
    01:35:06.701                : Chapter 19
    01:38:13.721                : Chapter 20

  • Peso: 3.55 GiB

Sinopsis

Descargar Un jefe en pañales 2: Negocios de familia (2021) HD 1080p Latino. Los hermanos Templeton se han convertido en adultos y se han alejado el uno del otro, pero un nuevo jefe bebé con un enfoque de vanguardia está a punto de unirlos nuevamente e inspirar un nuevo negocio familiar.

Ficha técnica

Video trailer de la película

Enlaces de descarga

Rip de Bluray

Descargar Un jefe en pañales 2: Negocios de familia (2021) HD 1080p Latino




Aportes de DPeliculasHDmega la pass es:dpeliculashdmega.org Aportes de CinemaniaHD la pass es:cinemaniahdd.com
Guardado en : Animación , Aventura , Comedia , Familia , HD 1080p

Películas relacionadas

descargar Un jefe en pañales 2: Negocios de familia (2021) HD 1080p Latino 1080p 1080p gratis, Un jefe en pañales 2: Negocios de familia (2021) HD 1080p Latino 1080p mega 1 link, Un jefe en pañales 2: Negocios de familia (2021) HD 1080p Latino 1080p pelicula completa, descargar Un jefe en pañales 2: Negocios de familia (2021) HD 1080p Latino 1080p gratis en mega.

Un jefe en pañales 2: Negocios de familia (2021) HD 1080p Latino pelicula full hd, Un jefe en pañales 2: Negocios de familia (2021) HD 1080p Latino mega latino, Un jefe en pañales 2: Negocios de familia (2021) HD 1080p Latino 4k latino, Un jefe en pañales 2: Negocios de familia (2021) HD 1080p Latino pelicula completa, Un jefe en pañales 2: Negocios de familia (2021) HD 1080p Latino descargar gratis, descargar Un jefe en pañales 2: Negocios de familia (2021) HD 1080p Latino pelicula latino, Un jefe en pañales 2: Negocios de familia (2021) HD 1080p Latino 1 link mega, Un jefe en pañales 2: Negocios de familia (2021) HD 1080p Latino 1 link google drive, Un jefe en pañales 2: Negocios de familia (2021) HD 1080p Latino hd 1080p latino.
Comentarios 0