Un Hombre Lobo Entre Nosotros (2021) PLACEBO Full HD 1080p Latino

16 vistas
1 estrella2 estrellas3 estrellas4 estrellas5 estrellas (Ninguna valoración todavía)
Cargando...

Información de Un Hombre Lobo Entre Nosotros (2021) PLACEBO Full HD 1080p Latino

Datos de la película

  • Calidad: Full 1080p
  • Audio: Español Latino AC3 5.1 WEB-DL - Ingles DTS 5.1 BLURAY
  • Subtitulos: Español Latino SRT- FORZADOS SRT
  • Resolución: 1920x1080p
  • Formato: MKV
  • Codec: H.264
  • Encoder: Melkor
  • Mediainfo: Clic para Mostrar Datos Ver
  • Un Hombre Lobo Entre Nosotros (2021) PLACEBO 1080p Latino.mkv
    Format                      : Matroska
    Format version              : Version 4
    File size                   : 3.55 GiB
    Duration                    : 1 h 36 min
    Overall bit rate            : 5 255 kb/s
    Movie name                  : Werewolves Within (2021) CinemaniaHDD.Net
    Encoded date                : UTC 2021-10-10 14:29:27
    Writing application         : mkvmerge v56.1.0 ('My Friend') 64-bit
    Writing library             : libebml v1.4.2 + libmatroska v1.6.4
    Attachments                 : CINEMANIAHD.png

    Video
    ID                          : 1
    Format                      : AVC
    Format/Info                 : Advanced Video Codec
    Format profile              : High@L4.1
    Format settings             : CABAC / 4 Ref Frames
    Format settings, CABAC      : Yes
    Format settings, Reference  : 4 frames
    Codec ID                    : V_MPEG4/ISO/AVC
    Duration                    : 1 h 36 min
    Bit rate                    : 3 295 kb/s
    Width                       : 1 920 pixels
    Height                      : 1 080 pixels
    Display aspect ratio        : 16:9
    Frame rate mode             : Constant
    Frame rate                  : 23.976 (24000/1001) FPS
    Color space                 : YUV
    Chroma subsampling          : 4:2:0
    Bit depth                   : 8 bits
    Scan type                   : Progressive
    Bits/(Pixel*Frame)          : 0.066
    Stream size                 : 2.22 GiB (63%)
    Title                       : Full HD1080p [CinemaniaHDD]
    Writing library             : x264 core 163 r3059 b684ebe0
    Encoding settings           : cabac=1 / ref=4 / deblock=1:0:0 / analyse=0x3:0x133 / me=tesa / subme=11 / psy=1 / psy_rd=1.00:0.00 / mixed_ref=1 / me_range=24 / chroma_me=1 / trellis=2 / 8x8dct=1 / cqm=0 / deadzone=21,11 / fast_pskip=0 / chroma_qp_offset=-2 / threads=24 / lookahead_threads=6 / sliced_threads=0 / nr=0 / decimate=1 / interlaced=0 / bluray_compat=0 / constrained_intra=0 / bframes=16 / b_pyramid=2 / b_adapt=2 / b_bias=0 / direct=3 / weightb=1 / open_gop=0 / weightp=2 / keyint=240 / keyint_min=24 / scenecut=40 / intra_refresh=0 / rc_lookahead=60 / rc=crf / mbtree=1 / crf=19.0 / qcomp=0.60 / qpmin=0 / qpmax=69 / qpstep=4 / vbv_maxrate=62500 / vbv_bufsize=78125 / crf_max=0.0 / nal_hrd=none / filler=0 / ip_ratio=1.40 / aq=1:1.00
    Default                     : Yes
    Forced                      : Yes
    Color range                 : Limited
    Color primaries             : BT.709
    Transfer characteristics    : BT.709
    Matrix coefficients         : BT.709

    Audio #1
    ID                          : 2
    Format                      : AC-3
    Format/Info                 : Audio Coding 3
    Commercial name             : Dolby Digital
    Codec ID                    : A_AC3
    Duration                    : 1 h 36 min
    Bit rate mode               : Constant
    Bit rate                    : 448 kb/s
    Channel(s)                  : 6 channels
    Channel layout              : L R C LFE Ls Rs
    Sampling rate               : 48.0 kHz
    Frame rate                  : 31.250 FPS (1536 SPF)
    Compression mode            : Lossy
    Stream size                 : 310 MiB (9%)
    Title                       : Español Latino [CinemaniaHDD]
    Language                    : Spanish
    Service kind                : Complete Main
    Default                     : Yes
    Forced                      : Yes

    Audio #2
    ID                          : 3
    Format                      : DTS
    Format/Info                 : Digital Theater Systems
    Codec ID                    : A_DTS
    Duration                    : 1 h 36 min
    Bit rate mode               : Constant
    Bit rate                    : 1 509 kb/s
    Channel(s)                  : 6 channels
    Channel layout              : C L R Ls Rs LFE
    Sampling rate               : 48.0 kHz
    Frame rate                  : 93.750 FPS (512 SPF)
    Bit depth                   : 24 bits
    Compression mode            : Lossy
    Stream size                 : 1.02 GiB (29%)
    Title                       : Ingles [CinemaniaHDD]
    Language                    : English
    Default                     : No
    Forced                      : No

    Text #1
    ID                          : 4
    Format                      : UTF-8
    Codec ID                    : S_TEXT/UTF8
    Codec ID/Info               : UTF-8 Plain Text
    Duration                    : 1 h 30 min
    Bit rate                    : 0 b/s
    Count of elements           : 22
    Stream size                 : 567 Bytes (0%)
    Title                       : Forzados-SRT [CinemaniaHDD]
    Language                    : Spanish
    Default                     : Yes
    Forced                      : Yes

    Text #2
    ID                          : 5
    Format                      : UTF-8
    Codec ID                    : S_TEXT/UTF8
    Codec ID/Info               : UTF-8 Plain Text
    Duration                    : 1 h 30 min
    Bit rate                    : 81 b/s
    Count of elements           : 1387
    Stream size                 : 53.9 KiB (0%)
    Title                       : Español-SRT [CinemaniaHDD]
    Language                    : Spanish
    Default                     : No
    Forced                      : No

    Text #3
    ID                          : 6
    Format                      : UTF-8
    Codec ID                    : S_TEXT/UTF8
    Codec ID/Info               : UTF-8 Plain Text
    Duration                    : 1 h 27 min
    Bit rate                    : 75 b/s
    Count of elements           : 1258
    Stream size                 : 48.2 KiB (0%)
    Title                       : Ingles [CinemaniaHDD]
    Language                    : English
    Default                     : No
    Forced                      : No

    Menu
    00:00:00.000                : Chapter 01
    00:09:32.489                : Chapter 02
    00:17:22.833                : Chapter 03
    00:26:47.397                : Chapter 04
    00:35:09.566                : Chapter 05
    00:42:14.824                : Chapter 06
    00:51:49.606                : Chapter 07
    01:02:56.439                : Chapter 08
    01:12:04.195                : Chapter 09
    01:19:09.036                : Chapter 10
    01:23:39.932                : Chapter 11
    01:30:17.329                : Chapter 12

  • Peso: 3.55 GiB

Sinopsis

Descargar Un Hombre Lobo Entre Nosotros (2021) PLACEBO Full HD 1080p Latino. Cuando un oleoducto propuesto crea hostilidades entre los residentes de una pequeña ciudad, un guardabosques recién llegado debe mantener la paz después de que una tormenta de nieve confina a la gente del pueblo en un antiguo albergue. Pero cuando una criatura misteriosa comienza a aterrorizar al grupo, sus peores tendencias y prejuicios salen a la superficie, y el guardabosques debe mantener con vida a los residentes, tanto entre ellos como con el monstruo que los atormenta.

Ficha técnica

Video trailer de la película

Enlaces de descarga

Rip de Bluray

Descargar Un Hombre Lobo Entre Nosotros (2021) PLACEBO Full HD 1080p Latino




Aportes de DPeliculasHDmega la pass es:dpeliculashdmega.org Aportes de CinemaniaHD la pass es:cinemaniahdd.com

Películas relacionadas

  • Playhouse (2020) PLACEBO Full HD 1080p Latino

    Playhouse (2020) PLACEBO Full HD 1080p Latino

    2020
    Playhouse (2020) PLACEBO Full HD 1080p Latino

    0.0 1h 27m 2020

    Descargar Playhouse (2020) PLACEBO Full HD 1080p Latino. El temerario Jack Travis (William Holstead)...

    Director: Toby Watts

    Género: FULL 1080p Plateadas

    Actores: William Holstead

  • Playhouse (2020) HD 1080p Latino

    Playhouse (2020) HD 1080p Latino

    2020
    Playhouse (2020) HD 1080p Latino

    0.0 1h 27m 2020

    Descargar Playhouse (2020) HD 1080p Latino. El temerario Jack Travis (William Holstead) es un irreverente...

    Director: Toby Watts

    Género: HD 1080p

    Actores: William Holstead

  • Playhouse (2020) REMUX 1080p Latino

    Playhouse (2020) REMUX 1080p Latino

    2020
    Playhouse (2020) REMUX 1080p Latino

    0.0 1h 27m 2020

    Descargar Playhouse (2020) REMUX 1080p Latino. El temerario Jack Travis (William Holstead) es un irreverente...

    Director: Toby Watts

    Género: Remux

    Actores: William Holstead

  • The Three Stooges (2012) REMUX 1080p Latino – CMHDD

    The Three Stooges (2012) REMUX 1080p Latino – CMHDD

    2012
    The Three Stooges (2012) REMUX 1080p Latino – CMHDD

    0.0 1h 32m 2012

    Es inspirada en la serie de 190 cortos, de unos 16 minutos, 'The Three Stooges' que estrenó Columbia...

    Director: Peter Farrelly

    Género: Comedia

    Actores: William R. Brock

Un Hombre Lobo Entre Nosotros (2021) PLACEBO Full HD 1080p Latino pelicula full hd, Un Hombre Lobo Entre Nosotros (2021) PLACEBO Full HD 1080p Latino mega latino, Un Hombre Lobo Entre Nosotros (2021) PLACEBO Full HD 1080p Latino 4k latino, Un Hombre Lobo Entre Nosotros (2021) PLACEBO Full HD 1080p Latino pelicula completa, Un Hombre Lobo Entre Nosotros (2021) PLACEBO Full HD 1080p Latino descargar gratis, descargar Un Hombre Lobo Entre Nosotros (2021) PLACEBO Full HD 1080p Latino pelicula latino, Un Hombre Lobo Entre Nosotros (2021) PLACEBO Full HD 1080p Latino 1 link mega, Un Hombre Lobo Entre Nosotros (2021) PLACEBO Full HD 1080p Latino 1 link google drive, Un Hombre Lobo Entre Nosotros (2021) PLACEBO Full HD 1080p Latino hd 1080p latino.
Comentarios 0