×

¿Problemas para descargar con Mozilla, EDGE? Deshabilita la opción "Abrir vinculos en una pestaña nueva" tal como lo muestra ésta imagen.

Un Hombre En Apuros (2018) REMUX 1080p Latino

111 vistas

Información de Un Hombre En Apuros (2018) REMUX 1080p Latino

Datos de la película

  • Calidad: Full 1080p
  • Audio: Se especifica abajo de la Sinopsis
  • Subtitulos: Español Latino SRT- FORZADOS SRT
  • Resolución: 1920x1080p
  • Formato: MKV
  • Codec: H.264
  • Encoder: Melkor
  • Mediainfo: Clic para Mostrar Datos Ver
  • Un Hombre En Apuros (2018) REMUX 1080p Latino.mkv
    Format                      : Matroska
    Format version              : Version 4
    File size                   : 22.7 GiB
    Duration                    : 1 h 40 min
    Overall bit rate mode       : Variable
    Overall bit rate            : 32.5 Mb/s
    Movie name                  : Un Homme Pressé (2018) CinemaniaHDD.Net
    Encoded date                : UTC 2021-06-26 01:48:29
    Writing application         : mkvmerge v56.1.0 ('My Friend') 64-bit
    Writing library             : libebml v1.4.2 + libmatroska v1.6.4
    Attachments                 : CINEMANIAHD.png

    Video
    ID                          : 1
    Format                      : AVC
    Format/Info                 : Advanced Video Codec
    Format profile              : High@L4.1
    Format settings             : CABAC / 4 Ref Frames
    Format settings, CABAC      : Yes
    Format settings, Reference  : 4 frames
    Format settings, GOP        : M=3, N=24
    Codec ID                    : V_MPEG4/ISO/AVC
    Duration                    : 1 h 40 min
    Bit rate mode               : Variable
    Bit rate                    : 30.0 Mb/s
    Maximum bit rate            : 35.0 Mb/s
    Width                       : 1 920 pixels
    Height                      : 1 080 pixels
    Display aspect ratio        : 16:9
    Frame rate mode             : Constant
    Frame rate                  : 24.000 FPS
    Standard                    : NTSC
    Color space                 : YUV
    Chroma subsampling          : 4:2:0
    Bit depth                   : 8 bits
    Scan type                   : Progressive
    Bits/(Pixel*Frame)          : 0.603
    Stream size                 : 21.0 GiB (92%)
    Title                       : REMUX HD1080p [CinemaniaHDD]
    Default                     : Yes
    Forced                      : Yes
    Color range                 : Limited
    Color primaries             : BT.709
    Transfer characteristics    : BT.709
    Matrix coefficients         : BT.709

    Audio #1
    ID                          : 2
    Format                      : AC-3
    Format/Info                 : Audio Coding 3
    Commercial name             : Dolby Digital
    Codec ID                    : A_AC3
    Duration                    : 1 h 40 min
    Bit rate mode               : Constant
    Bit rate                    : 256 kb/s
    Channel(s)                  : 2 channels
    Channel layout              : L R
    Sampling rate               : 48.0 kHz
    Frame rate                  : 31.250 FPS (1536 SPF)
    Compression mode            : Lossy
    Stream size                 : 183 MiB (1%)
    Title                       : Español Latino AC3 [CinemaniaHDD]
    Language                    : Spanish
    Service kind                : Complete Main
    Default                     : Yes
    Forced                      : Yes

    Audio #2
    ID                          : 3
    ID in the original source m : 4353 (0x1101)
    Format                      : DTS XLL
    Format/Info                 : Digital Theater Systems
    Commercial name             : DTS-HD Master Audio
    Codec ID                    : A_DTS
    Duration                    : 1 h 40 min
    Bit rate mode               : Variable
    Bit rate                    : 1 968 kb/s
    Channel(s)                  : 6 channels
    Channel layout              : C L R Ls Rs LFE
    Sampling rate               : 48.0 kHz
    Frame rate                  : 93.750 FPS (512 SPF)
    Bit depth                   : 16 bits
    Compression mode            : Lossless
    Stream size                 : 1.37 GiB (6%)
    Title                       : Frances [CinemaniaHDD]
    Language                    : French
    Default                     : No
    Forced                      : No
    Original source medium      : Blu-ray

    Audio #3
    ID                          : 4
    Format                      : E-AC-3
    Format/Info                 : Enhanced AC-3
    Commercial name             : Dolby Digital Plus
    Codec ID                    : A_EAC3
    Duration                    : 1 h 40 min
    Bit rate mode               : Constant
    Bit rate                    : 224 kb/s
    Channel(s)                  : 2 channels
    Channel layout              : L R
    Sampling rate               : 48.0 kHz
    Frame rate                  : 31.250 FPS (1536 SPF)
    Compression mode            : Lossy
    Delay relative to video     : 980 ms
    Stream size                 : 160 MiB (1%)
    Title                       : Español Latino EAC3 [CinemaniaHDD]
    Language                    : Spanish
    Service kind                : Complete Main
    Default                     : No
    Forced                      : No

    Text #1
    ID                          : 5
    Format                      : UTF-8
    Codec ID                    : S_TEXT/UTF8
    Codec ID/Info               : UTF-8 Plain Text
    Duration                    : 1 h 35 min
    Bit rate                    : 0 b/s
    Count of elements           : 30
    Stream size                 : 677 Bytes (0%)
    Title                       : Forzados-SRT [CinemaniaHDD]
    Language                    : Spanish
    Default                     : Yes
    Forced                      : Yes

    Text #2
    ID                          : 6
    Format                      : UTF-8
    Codec ID                    : S_TEXT/UTF8
    Codec ID/Info               : UTF-8 Plain Text
    Duration                    : 1 h 39 min
    Bit rate                    : 45 b/s
    Count of elements           : 1230
    Stream size                 : 33.1 KiB (0%)
    Title                       : Español-SRT [CinemaniaHDD]
    Language                    : English
    Default                     : No
    Forced                      : No

    Text #3
    ID                          : 7
    ID in the original source m : 4608 (0x1200)
    Format                      : PGS
    Muxing mode                 : zlib
    Codec ID                    : S_HDMV/PGS
    Codec ID/Info               : Picture based subtitle format used on BDs/HD-DVDs
    Duration                    : 1 h 39 min
    Bit rate                    : 22.4 kb/s
    Count of elements           : 2464
    Stream size                 : 16.0 MiB (0%)
    Title                       : Frances-PGS [CinemaniaHDD]
    Language                    : French
    Default                     : No
    Forced                      : No
    Original source medium      : Blu-ray

    Menu
    00:00:00.000                : Chapter 01
    00:07:03.791                : Chapter 02
    00:16:15.875                : Chapter 03
    00:23:28.500                : Chapter 04
    00:30:39.666                : Chapter 05
    00:38:54.583                : Chapter 06
    00:47:30.791                : Chapter 07
    00:55:40.416                : Chapter 08
    01:04:38.666                : Chapter 09
    01:14:06.916                : Chapter 10
    01:26:59.791                : Chapter 11
    01:36:26.583                : Chapter 12

  • Peso: 22.7 GiB

Sinopsis

Descargar Un Hombre En Apuros (2018) REMUX 1080p Latino. Alain es un respetado hombre de negocios y un brillante orador. En su vida, no hay lugar para el ocio o la familia. Un día, sufre un derrame cerebral que frena su brillante carrera profesional y le causa problemas profundos en el habla y la memoria. En su rehabilitación cuenta con el apoyo de Jeanne, una joven logopeda. A fuerza de trabajo y paciencia, Jeanne y Alain llegarán a conocerse y él intentará reconstruirse y empezar una nueva vida.

Español Latino EAC3 & AC3 2.0 – Frances DTS-HD 5.1

Nota: Disponible Solo Para VIP!!! 🙂

Ficha técnica

Video trailer de la película

Enlaces de descarga

Rip de Bluray

Descargar Un Hombre En Apuros (2018) REMUX 1080p Latino


Aportes de DPeliculasHDmega la pass es:dpeliculashdmega.org Aportes de CinemaniaHD la pass es:cinemaniahdd.com
Guardado en : Comedia , Drama , Remux

Películas relacionadas

descargar Un Hombre En Apuros (2018) REMUX 1080p Latino Full 1080p 1080p gratis, Un Hombre En Apuros (2018) REMUX 1080p Latino Full 1080p mega 1 link, Un Hombre En Apuros (2018) REMUX 1080p Latino Full 1080p pelicula completa, descargar Un Hombre En Apuros (2018) REMUX 1080p Latino Full 1080p gratis en mega.

Un Hombre En Apuros (2018) REMUX 1080p Latino pelicula full hd, Un Hombre En Apuros (2018) REMUX 1080p Latino mega latino, Un Hombre En Apuros (2018) REMUX 1080p Latino 4k latino, Un Hombre En Apuros (2018) REMUX 1080p Latino pelicula completa, Un Hombre En Apuros (2018) REMUX 1080p Latino descargar gratis, descargar Un Hombre En Apuros (2018) REMUX 1080p Latino pelicula latino, Un Hombre En Apuros (2018) REMUX 1080p Latino 1 link mega, Un Hombre En Apuros (2018) REMUX 1080p Latino 1 link google drive, Un Hombre En Apuros (2018) REMUX 1080p Latino hd 1080p latino.
Comentarios 0