×

¿Problemas para descargar con Mozilla, EDGE? Deshabilita la opción "Abrir vinculos en una pestaña nueva" tal como lo muestra ésta imagen.

Un Héroe Encubierto 2 (2019) REMUX 1080p Latino

245 vistas

Información de Un Héroe Encubierto 2 (2019) REMUX 1080p Latino

Datos de la película

  • Calidad: Full 1080p
  • Audio: Español Latino AC3 5.1 iTUNES - Ingles DTS 5.1 BLURAY
  • Subtitulos: Español Latino SRT- FORZADOS SRT
  • Resolución: 1920x1080p
  • Formato: MKV
  • Codec: H.264
  • Encoder: Melkor
  • Mediainfo: Clic para Mostrar Datos Ver
  • Un Heroe Encubierto 2 (2019) REMUX 1080p Latino.mkv
    Format                      : Matroska
    Format version              : Version 4
    File size                   : 19.5 GiB
    Duration                    : 1 h 24 min
    Overall bit rate mode       : Variable
    Overall bit rate            : 33.0 Mb/s
    Movie name                  : Undercover Brother 2 (2019) CinemaniaHDD.Net
    Encoded date                : UTC 2020-09-11 01:12:18
    Writing application         : mkvmerge v46.0.0 ('No Deeper Escape') 64-bit
    Writing library             : libebml v1.3.10 + libmatroska v1.5.2
    Attachments                 : CINEMANIAHD.png

    Video
    ID                          : 1
    ID in the original source m : 4113 (0x1011)
    Format                      : AVC
    Format/Info                 : Advanced Video Codec
    Format profile              : High@L4.1
    Format settings             : CABAC / 2 Ref Frames
    Format settings, CABAC      : Yes
    Format settings, Reference  : 2 frames
    Format settings, GOP        : M=1, N=5
    Codec ID                    : V_MPEG4/ISO/AVC
    Duration                    : 1 h 24 min
    Bit rate mode               : Variable
    Bit rate                    : 28.5 Mb/s
    Maximum bit rate            : 38.2 Mb/s
    Width                       : 1 920 pixels
    Height                      : 1 080 pixels
    Display aspect ratio        : 16:9
    Frame rate mode             : Constant
    Frame rate                  : 23.976 (24000/1001) FPS
    Color space                 : YUV
    Chroma subsampling          : 4:2:0
    Bit depth                   : 8 bits
    Scan type                   : Progressive
    Bits/(Pixel*Frame)          : 0.573
    Stream size                 : 16.8 GiB (86%)
    Title                       : REMUX 1080p [CinemaniaHDD]
    Default                     : Yes
    Forced                      : Yes
    Original source medium      : Blu-ray

    Audio #1
    ID                          : 2
    Format                      : AC-3
    Format/Info                 : Audio Coding 3
    Commercial name             : Dolby Digital
    Codec ID                    : A_AC3
    Duration                    : 1 h 24 min
    Bit rate mode               : Constant
    Bit rate                    : 384 kb/s
    Channel(s)                  : 6 channels
    Channel layout              : L R C LFE Ls Rs
    Sampling rate               : 48.0 kHz
    Frame rate                  : 31.250 FPS (1536 SPF)
    Compression mode            : Lossy
    Delay relative to video     : 7 ms
    Stream size                 : 232 MiB (1%)
    Title                       : Español Latino [CinemaniaHDD]
    Language                    : Spanish
    Service kind                : Complete Main
    Default                     : Yes
    Forced                      : Yes

    Audio #2
    ID                          : 3
    ID in the original source m : 4352 (0x1100)
    Format                      : DTS XLL
    Format/Info                 : Digital Theater Systems
    Commercial name             : DTS-HD Master Audio
    Codec ID                    : A_DTS
    Duration                    : 1 h 24 min
    Bit rate mode               : Variable
    Bit rate                    : 4 081 kb/s
    Channel(s)                  : 6 channels
    Channel layout              : C L R Ls Rs LFE
    Sampling rate               : 48.0 kHz
    Frame rate                  : 93.750 FPS (512 SPF)
    Bit depth                   : 24 bits
    Compression mode            : Lossless
    Stream size                 : 2.41 GiB (12%)
    Title                       : Ingles [CinemaniaHDD]
    Language                    : English
    Default                     : No
    Forced                      : No
    Original source medium      : Blu-ray

    Text #1
    ID                          : 4
    Format                      : UTF-8
    Codec ID                    : S_TEXT/UTF8
    Codec ID/Info               : UTF-8 Plain Text
    Duration                    : 1 h 18 min
    Bit rate                    : 1 b/s
    Count of elements           : 23
    Stream size                 : 984 Bytes (0%)
    Title                       : Forzados-SRT [CinemaniaHDD]
    Language                    : Spanish
    Default                     : Yes
    Forced                      : Yes

    Text #2
    ID                          : 5
    Format                      : UTF-8
    Codec ID                    : S_TEXT/UTF8
    Codec ID/Info               : UTF-8 Plain Text
    Duration                    : 1 h 20 min
    Bit rate                    : 80 b/s
    Count of elements           : 1469
    Stream size                 : 47.6 KiB (0%)
    Title                       : Español-SRT [CinemaniaHDD]
    Language                    : Spanish
    Default                     : No
    Forced                      : No

    Text #3
    ID                          : 6
    ID in the original source m : 4608 (0x1200)
    Format                      : PGS
    Muxing mode                 : zlib
    Codec ID                    : S_HDMV/PGS
    Codec ID/Info               : Picture based subtitle format used on BDs/HD-DVDs
    Duration                    : 1 h 20 min
    Bit rate                    : 56.7 kb/s
    Count of elements           : 3086
    Stream size                 : 32.7 MiB (0%)
    Title                       : Ingles-PGS [CinemaniaHDD]
    Language                    : English
    Default                     : No
    Forced                      : No
    Original source medium      : Blu-ray

    Menu
    00:00:00.000                : en:Chapter 01
    00:10:00.766                : en:Chapter 02
    00:20:01.283                : en:Chapter 03
    00:30:02.175                : en:Chapter 04
    00:40:02.566                : en:Chapter 05
    00:50:04.501                : en:Chapter 06
    01:00:04.142                : en:Chapter 07
    01:10:16.128                : en:Chapter 08
    01:20:05.342                : en:Chapter 09

  • Peso: 19.5 GiB

Sinopsis

Descargar Un Héroe Encubierto 2 (2019) REMUX 1080p Latino. Hace dieciséis años, Undercover Brother y su hermano menor estaban pisándole los talones al líder de un sindicato racista en todo el mundo, pero accidentalmente quedaron atrapados en una avalancha de nieve blanca. Después de que fueron descubiertos y descongelados, el hermano encubierto permaneció en coma. Ahora, depende de su hermano pequeño terminar el trabajo que comenzaron.

Ficha técnica

  • Titulo original: Undercover Brother 2
  • Fecha de lanzamiento: 05-11-2019 (United States of America)
  • Director: Leslie Small
  • Género: Acción, Comedia, Remux

Video trailer de la película

Enlaces de descarga

Rip de Bluray

Descargar Un Héroe Encubierto 2 (2019) REMUX 1080p Latino




Aportes de DPeliculasHDmega la pass es:dpeliculashdmega.org Aportes de CinemaniaHD la pass es:cinemaniahdd.com
Guardado en : Acción , Comedia , Remux

Películas relacionadas

  • Paradise Highway (2022) REMUX 1080p Latino

    Paradise Highway (2022) REMUX 1080p Latino

    2022
    Paradise Highway (2022) REMUX 1080p Latino

    1h 55m 2022

    Descargar Paradise Highway (2022) REMUX 1080p Latino. Un camionero se ha visto obligado a pasar de contrabando...

    Director: Anna Gutto

    Género: Crimen

    Actores: Xavier Scott Evans

  • Shotgun Wedding (2022) AMZN WEB-DL 1080p Latino

    Shotgun Wedding (2022) AMZN WEB-DL 1080p Latino

    2022
    Shotgun Wedding (2022) AMZN WEB-DL 1080p Latino

    1h 41m 2022

    Darcy y Tom reúnen a sus familias para la boda de destino definitiva, pero cuando toman como rehenes...

    Director: Jason Moore

    Género: Acción

    Actores: Steve Coulter

  • M3GAN (2023) AMZN WEB-DL 4K UHD HDR Latino

    M3GAN (2023) AMZN WEB-DL 4K UHD HDR Latino

    2022
    M3GAN (2023) AMZN WEB-DL 4K UHD HDR Latino

    1h 42m 2022

    Descargar M3GAN (2023) AMZN WEB-DL 4K UHD HDR Latino. Cuando Gemma se convierte en la cuidadora de su...

    Director: Stephen W. Moore

    Género: 4K HDR

    Actores: Violet McGraw

  • M3GAN (2022) MA WEB-DL 1080p Latino

    M3GAN (2022) MA WEB-DL 1080p Latino

    2022
    M3GAN (2022) MA WEB-DL 1080p Latino

    1h 42m 2022

    Descargar M3GAN (2022) MA WEB-DL 1080p Latino. Cuando Gemma se convierte en la cuidadora de su sobrina...

    Director: Stephen W. Moore

    Género: Ciencia ficción

    Actores: Violet McGraw

descargar Un Héroe Encubierto 2 (2019) REMUX 1080p Latino Full 1080p 1080p gratis, Un Héroe Encubierto 2 (2019) REMUX 1080p Latino Full 1080p mega 1 link, Un Héroe Encubierto 2 (2019) REMUX 1080p Latino Full 1080p pelicula completa, descargar Un Héroe Encubierto 2 (2019) REMUX 1080p Latino Full 1080p gratis en mega.

Un Héroe Encubierto 2 (2019) REMUX 1080p Latino pelicula full hd, Un Héroe Encubierto 2 (2019) REMUX 1080p Latino mega latino, Un Héroe Encubierto 2 (2019) REMUX 1080p Latino 4k latino, Un Héroe Encubierto 2 (2019) REMUX 1080p Latino pelicula completa, Un Héroe Encubierto 2 (2019) REMUX 1080p Latino descargar gratis, descargar Un Héroe Encubierto 2 (2019) REMUX 1080p Latino pelicula latino, Un Héroe Encubierto 2 (2019) REMUX 1080p Latino 1 link mega, Un Héroe Encubierto 2 (2019) REMUX 1080p Latino 1 link google drive, Un Héroe Encubierto 2 (2019) REMUX 1080p Latino hd 1080p latino.
Comentarios 0