×

¿Problemas para descargar con Mozilla, EDGE? Deshabilita la opción "Abrir vinculos en una pestaña nueva" tal como lo muestra ésta imagen.

Un Héroe Encubierto 2 (2019) PLACEBO Full HD 1080p Latino

271 vistas

Información de Un Héroe Encubierto 2 (2019) PLACEBO Full HD 1080p Latino

Datos de la película

  • Calidad: Full 1080p
  • Audio: Español Latino AC3 5.1 iTUNES - Ingles DTS 5.1 BLURAY
  • Subtitulos: Español Latino SRT- FORZADOS SRT
  • Resolución: 1920x1080p
  • Formato: MKV
  • Codec: H.264
  • Encoder: Melkor
  • Mediainfo: Clic para Mostrar Datos Ver
  • Un Heroe Encubierto 2 (2019) PLACEBO Full HD 1080p Latino.mkv
    Format                      : Matroska
    Format version              : Version 4
    File size                   : 4.50 GiB
    Duration                    : 1 h 24 min
    Overall bit rate            : 7 618 kb/s
    Movie name                  : Undercover Brother 2 (2019) CinemaniaHDD.Net
    Encoded date                : UTC 2020-09-11 01:21:55
    Writing application         : mkvmerge v46.0.0 ('No Deeper Escape') 64-bit
    Writing library             : libebml v1.3.10 + libmatroska v1.5.2
    Attachments                 : CINEMANIAHD.png

    Video
    ID                          : 1
    Format                      : AVC
    Format/Info                 : Advanced Video Codec
    Format profile              : High@L4.1
    Format settings             : CABAC / 4 Ref Frames
    Format settings, CABAC      : Yes
    Format settings, Reference  : 4 frames
    Codec ID                    : V_MPEG4/ISO/AVC
    Duration                    : 1 h 24 min
    Bit rate                    : 5 705 kb/s
    Width                       : 1 920 pixels
    Height                      : 1 080 pixels
    Display aspect ratio        : 16:9
    Frame rate mode             : Constant
    Frame rate                  : 23.976 (24000/1001) FPS
    Color space                 : YUV
    Chroma subsampling          : 4:2:0
    Bit depth                   : 8 bits
    Scan type                   : Progressive
    Bits/(Pixel*Frame)          : 0.115
    Stream size                 : 3.37 GiB (75%)
    Title                       : Full HD1080p [CinemaniaHDD]
    Writing library             : x264 core 157 r2935 545de2f
    Encoding settings           : cabac=1 / ref=4 / deblock=1:0:0 / analyse=0x3:0x133 / me=tesa / subme=11 / psy=1 / psy_rd=1.00:0.00 / mixed_ref=1 / me_range=24 / chroma_me=1 / trellis=2 / 8x8dct=1 / cqm=0 / deadzone=21,11 / fast_pskip=0 / chroma_qp_offset=-2 / threads=24 / lookahead_threads=6 / sliced_threads=0 / nr=0 / decimate=1 / interlaced=0 / bluray_compat=0 / constrained_intra=0 / bframes=16 / b_pyramid=2 / b_adapt=2 / b_bias=0 / direct=3 / weightb=1 / open_gop=0 / weightp=2 / keyint=240 / keyint_min=24 / scenecut=40 / intra_refresh=0 / rc_lookahead=60 / rc=crf / mbtree=1 / crf=20.0 / qcomp=0.60 / qpmin=0 / qpmax=69 / qpstep=4 / vbv_maxrate=62500 / vbv_bufsize=78125 / crf_max=0.0 / nal_hrd=none / filler=0 / ip_ratio=1.40 / aq=1:1.00
    Default                     : Yes
    Forced                      : Yes
    Color range                 : Limited
    Color primaries             : BT.709
    Transfer characteristics    : BT.709
    Matrix coefficients         : BT.709

    Audio #1
    ID                          : 2
    Format                      : AC-3
    Format/Info                 : Audio Coding 3
    Commercial name             : Dolby Digital
    Codec ID                    : A_AC3
    Duration                    : 1 h 24 min
    Bit rate mode               : Constant
    Bit rate                    : 384 kb/s
    Channel(s)                  : 6 channels
    Channel layout              : L R C LFE Ls Rs
    Sampling rate               : 48.0 kHz
    Frame rate                  : 31.250 FPS (1536 SPF)
    Compression mode            : Lossy
    Delay relative to video     : 7 ms
    Stream size                 : 232 MiB (5%)
    Title                       : Español Latino [CinemaniaHDD]
    Language                    : Spanish
    Service kind                : Complete Main
    Default                     : Yes
    Forced                      : Yes

    Audio #2
    ID                          : 3
    Format                      : DTS
    Format/Info                 : Digital Theater Systems
    Codec ID                    : A_DTS
    Duration                    : 1 h 24 min
    Bit rate mode               : Constant
    Bit rate                    : 1 509 kb/s
    Channel(s)                  : 6 channels
    Channel layout              : C L R Ls Rs LFE
    Sampling rate               : 48.0 kHz
    Frame rate                  : 93.750 FPS (512 SPF)
    Bit depth                   : 24 bits
    Compression mode            : Lossy
    Stream size                 : 913 MiB (20%)
    Title                       : Ingles [CinemaniaHDD]
    Language                    : English
    Default                     : No
    Forced                      : No

    Text #1
    ID                          : 4
    Format                      : UTF-8
    Codec ID                    : S_TEXT/UTF8
    Codec ID/Info               : UTF-8 Plain Text
    Duration                    : 1 h 18 min
    Bit rate                    : 1 b/s
    Count of elements           : 23
    Stream size                 : 984 Bytes (0%)
    Title                       : Forzados-SRT [CinemaniaHDD]
    Language                    : Spanish
    Default                     : Yes
    Forced                      : Yes

    Text #2
    ID                          : 5
    Format                      : UTF-8
    Codec ID                    : S_TEXT/UTF8
    Codec ID/Info               : UTF-8 Plain Text
    Duration                    : 1 h 20 min
    Bit rate                    : 80 b/s
    Count of elements           : 1469
    Stream size                 : 47.6 KiB (0%)
    Title                       : Español-SRT [CinemaniaHDD]
    Language                    : Spanish
    Default                     : No
    Forced                      : No

    Text #3
    ID                          : 6
    ID in the original source m : 4608 (0x1200)
    Format                      : PGS
    Muxing mode                 : zlib
    Codec ID                    : S_HDMV/PGS
    Codec ID/Info               : Picture based subtitle format used on BDs/HD-DVDs
    Duration                    : 1 h 20 min
    Bit rate                    : 56.7 kb/s
    Count of elements           : 3086
    Stream size                 : 32.7 MiB (1%)
    Title                       : Ingles-PGS [CinemaniaHDD]
    Language                    : English
    Default                     : No
    Forced                      : No
    Original source medium      : Blu-ray

    Menu
    00:00:00.000                : en:Chapter 01
    00:10:00.766                : en:Chapter 02
    00:20:01.283                : en:Chapter 03
    00:30:02.175                : en:Chapter 04
    00:40:02.566                : en:Chapter 05
    00:50:04.501                : en:Chapter 06
    01:00:04.142                : en:Chapter 07
    01:10:16.128                : en:Chapter 08
    01:20:05.342                : en:Chapter 09

  • Peso: 4.50 GiB

Sinopsis

Descargar Un Héroe Encubierto 2 (2019) PLACEBO Full HD 1080p Latino. Hace dieciséis años, Undercover Brother y su hermano menor estaban pisándole los talones al líder de un sindicato racista en todo el mundo, pero accidentalmente quedaron atrapados en una avalancha de nieve blanca. Después de que fueron descubiertos y descongelados, el hermano encubierto permaneció en coma. Ahora, depende de su hermano pequeño terminar el trabajo que comenzaron.

Ficha técnica

Video trailer de la película

Enlaces de descarga

Rip de Bluray

Descargar Un Héroe Encubierto 2 (2019) PLACEBO Full HD 1080p Latino




Aportes de DPeliculasHDmega la pass es:dpeliculashdmega.org Aportes de CinemaniaHD la pass es:cinemaniahdd.com

Películas relacionadas

descargar Un Héroe Encubierto 2 (2019) PLACEBO Full HD 1080p Latino Full 1080p 1080p gratis, Un Héroe Encubierto 2 (2019) PLACEBO Full HD 1080p Latino Full 1080p mega 1 link, Un Héroe Encubierto 2 (2019) PLACEBO Full HD 1080p Latino Full 1080p pelicula completa, descargar Un Héroe Encubierto 2 (2019) PLACEBO Full HD 1080p Latino Full 1080p gratis en mega.

Un Héroe Encubierto 2 (2019) PLACEBO Full HD 1080p Latino pelicula full hd, Un Héroe Encubierto 2 (2019) PLACEBO Full HD 1080p Latino mega latino, Un Héroe Encubierto 2 (2019) PLACEBO Full HD 1080p Latino 4k latino, Un Héroe Encubierto 2 (2019) PLACEBO Full HD 1080p Latino pelicula completa, Un Héroe Encubierto 2 (2019) PLACEBO Full HD 1080p Latino descargar gratis, descargar Un Héroe Encubierto 2 (2019) PLACEBO Full HD 1080p Latino pelicula latino, Un Héroe Encubierto 2 (2019) PLACEBO Full HD 1080p Latino 1 link mega, Un Héroe Encubierto 2 (2019) PLACEBO Full HD 1080p Latino 1 link google drive, Un Héroe Encubierto 2 (2019) PLACEBO Full HD 1080p Latino hd 1080p latino.
Comentarios 0