×

¿Problemas para descargar con Mozilla, EDGE? Deshabilita la opción "Abrir vinculos en una pestaña nueva" tal como lo muestra ésta imagen.

Un Espía y Medio (2016) REMUX 1080p Latino

642 vistas

Información de Un Espía y Medio (2016) REMUX 1080p Latino

Datos de la película

  • Calidad: Full 1080p
  • Audio: Español Latino AC3 5.1 BLURAY - Ingles DTS 5.1 BLURAY
  • Subtitulos: Español Latino PGS - Ingles PGS
  • Resolución: 1920x1080
  • Formato: MKV
  • Codec: H.264
  • Encoder: cinemaniahdd
  • Mediainfo: Clic para Mostrar Datos Ver
  • Un Espia y Medio (2016) REMUX 1080p Latino.mkv
    Format                      : Matroska
    Format version              : Version 4
    File size                   : 22.4 GiB
    Duration                    : 1 h 47 min
    Overall bit rate mode       : Variable
    Overall bit rate            : 29.8 Mb/s
    Movie name                  : Central Intelligence (2016) - CinemaniaHDD.Net
    Encoded date                : UTC 2020-03-05 19:44:22
    Writing application         : mkvmerge v42.0.0 ('Overtime') 64-bit
    Writing library             : libebml v1.3.10 + libmatroska v1.5.2

    Video
    ID                          : 1
    Format                      : AVC
    Format/Info                 : Advanced Video Codec
    Format profile              : High@L4.1
    Format settings             : CABAC / 2 Ref Frames
    Format settings, CABAC      : Yes
    Format settings, ReFrames   : 2 frames
    Codec ID                    : V_MPEG4/ISO/AVC
    Duration                    : 1 h 47 min
    Bit rate mode               : Variable
    Bit rate                    : 25.4 Mb/s
    Width                       : 1 920 pixels
    Height                      : 1 080 pixels
    Display aspect ratio        : 16:9
    Frame rate mode             : Constant
    Frame rate                  : 23.976 (24000/1001) FPS
    Color space                 : YUV
    Chroma subsampling          : 4:2:0
    Bit depth                   : 8 bits
    Scan type                   : Progressive
    Bits/(Pixel*Frame)          : 0.511
    Stream size                 : 19.1 GiB (85%)
    Title                       : CinemaniaHDD
    Language                    : English
    Default                     : Yes
    Forced                      : No

    Audio #1
    ID                          : 2
    Format                      : AC-3
    Format/Info                 : Audio Coding 3
    Commercial name             : Dolby Digital
    Codec ID                    : A_AC3
    Duration                    : 1 h 47 min
    Bit rate mode               : Constant
    Bit rate                    : 640 kb/s
    Channel(s)                  : 6 channels
    Channel layout              : L R C LFE Ls Rs
    Sampling rate               : 48.0 kHz
    Frame rate                  : 31.250 FPS (1536 SPF)
    Bit depth                   : 16 bits
    Compression mode            : Lossy
    Stream size                 : 493 MiB (2%)
    Title                       : Español latino [CinemaniaHDD]
    Language                    : Spanish
    Service kind                : Complete Main
    Default                     : Yes
    Forced                      : No

    Audio #2
    ID                          : 3
    Format                      : DTS XLL
    Format/Info                 : Digital Theater Systems
    Commercial name             : DTS-HD Master Audio
    Codec ID                    : A_DTS
    Duration                    : 1 h 47 min
    Bit rate mode               : Variable
    Bit rate                    : 3 712 kb/s
    Channel(s)                  : 6 channels
    Channel layout              : C L R Ls Rs LFE
    Sampling rate               : 48.0 kHz
    Frame rate                  : 93.750 FPS (512 SPF)
    Bit depth                   : 24 bits
    Compression mode            : Lossless
    Stream size                 : 2.79 GiB (12%)
    Title                       : Inglés [CinemaniaHDD]
    Language                    : English
    Default                     : No
    Forced                      : No

    Text #1
    ID                          : 4
    Format                      : UTF-8
    Codec ID                    : S_TEXT/UTF8
    Codec ID/Info               : UTF-8 Plain Text
    Duration                    : 1 h 46 min
    Bit rate                    : 1 b/s
    Count of elements           : 55
    Stream size                 : 1.17 KiB (0%)
    Title                       : Forzados [CinemaniaHDD]
    Language                    : Spanish
    Default                     : Yes
    Forced                      : Yes

    Text #2
    ID                          : 5
    Format                      : UTF-8
    Codec ID                    : S_TEXT/UTF8
    Codec ID/Info               : UTF-8 Plain Text
    Duration                    : 1 h 46 min
    Bit rate                    : 78 b/s
    Count of elements           : 2087
    Stream size                 : 61.0 KiB (0%)
    Title                       : Español latino [CinemaniaHDD]
    Language                    : Spanish
    Default                     : No
    Forced                      : No

    Text #3
    ID                          : 6
    Format                      : PGS
    Muxing mode                 : zlib
    Codec ID                    : S_HDMV/PGS
    Codec ID/Info               : Picture based subtitle format used on BDs/HD-DVDs
    Duration                    : 1 h 46 min
    Bit rate                    : 45.9 kb/s
    Count of elements           : 4174
    Stream size                 : 35.0 MiB (0%)
    Title                       : Forzados - PGS [CinemaniaHDD]
    Language                    : Spanish
    Default                     : No
    Forced                      : No

    Text #4
    ID                          : 7
    Format                      : PGS
    Muxing mode                 : zlib
    Codec ID                    : S_HDMV/PGS
    Codec ID/Info               : Picture based subtitle format used on BDs/HD-DVDs
    Duration                    : 1 h 46 min
    Bit rate                    : 1 185 b/s
    Count of elements           : 168
    Stream size                 : 925 KiB (0%)
    Title                       : Español latino - PGS [CinemaniaHDD]
    Language                    : Spanish
    Default                     : No
    Forced                      : No

    Text #5
    ID                          : 8
    Format                      : PGS
    Muxing mode                 : zlib
    Codec ID                    : S_HDMV/PGS
    Codec ID/Info               : Picture based subtitle format used on BDs/HD-DVDs
    Duration                    : 1 h 47 min
    Bit rate                    : 55.7 kb/s
    Count of elements           : 4582
    Stream size                 : 42.8 MiB (0%)
    Title                       : Inglés - PGS [CinemaniaHDD]
    Language                    : English
    Default                     : No
    Forced                      : No

    Menu
    00:00:00.000                : en:00:00:00.000
    00:09:32.238                : en:00:09:32.238
    00:21:47.848                : en:00:21:47.848
    00:32:26.861                : en:00:32:26.861
    00:47:37.104                : en:00:47:37.104
    00:57:28.528                : en:00:57:28.528
    01:03:15.750                : en:01:03:15.750
    01:17:23.222                : en:01:17:23.222
    01:26:11.541                : en:01:26:11.541
    01:36:29.992                : en:01:36:29.992
    01:48:21.411                : en:01:48:21.411

     

  • Peso: 22.4 GiB

Sinopsis

Un letal agente del la CIA (Johnson), víctima de acoso escolar en su adolescencia, vuelve a casa para asistir a una reunión de antiguos alumnos. Con la excusa de estar trabajando en un caso secreto, consigue la ayuda del chico popular en los años de Instituto (Hart), que ahora es un aburrido contable y vive añorando sus años de gloria. Para cuando el pobre oficinista se da cuenta del embrollo en el que se está metiendo, es demasiado tarde para desentenderse y su nuevo amigo, con maniobras cada vez más impredecibles, le arrastra a un mundo de tiroteos, traiciones y espionaje que les obligará a jugarse el cuello en incontables ocasiones.

RESUBIDO!!

Ficha técnica

Video trailer de la película

Enlaces de descarga

Rip de Bluray

Descargar Un Espía y Medio (2016) REMUX 1080p Latino




Aportes de DPeliculasHDmega la pass es:dpeliculashdmega.org Aportes de CinemaniaHD la pass es:cinemaniahdd.com
Guardado en : Acción , Comedia , Misterio , Remux

Películas relacionadas

descargar Un Espía y Medio (2016) REMUX 1080p Latino Full 1080p 1080p gratis, Un Espía y Medio (2016) REMUX 1080p Latino Full 1080p mega 1 link, Un Espía y Medio (2016) REMUX 1080p Latino Full 1080p pelicula completa, descargar Un Espía y Medio (2016) REMUX 1080p Latino Full 1080p gratis en mega.

Un Espía y Medio (2016) REMUX 1080p Latino pelicula full hd, Un Espía y Medio (2016) REMUX 1080p Latino mega latino, Un Espía y Medio (2016) REMUX 1080p Latino 4k latino, Un Espía y Medio (2016) REMUX 1080p Latino pelicula completa, Un Espía y Medio (2016) REMUX 1080p Latino descargar gratis, descargar Un Espía y Medio (2016) REMUX 1080p Latino pelicula latino, Un Espía y Medio (2016) REMUX 1080p Latino 1 link mega, Un Espía y Medio (2016) REMUX 1080p Latino 1 link google drive, Un Espía y Medio (2016) REMUX 1080p Latino hd 1080p latino.
Comentarios 2