Un día para sobrevivir (2011) [Open Matte] Full 1080p Latino

1.612 vistas
1 estrella2 estrellas3 estrellas4 estrellas5 estrellas (4 votos, promedio: 5,00 de 5)
Cargando…

Información de Un día para sobrevivir (2011) [Open Matte] Full 1080p Latino

Datos de la película

  • Calidad: Full 1080p
  • Audio: Español Latino AC3 5.1 BLURAY - Ingles DTS 5.1 BLURAY
  • Subtitulos: Español Latino PGS - Ingles PGS
  • Resolución: 1920x1080p
  • Formato: MKV
  • Codec: H.264
  • Encoder: Dracarys
  • Mediainfo: Clic para Mostrar Datos Ver
  • Format                                   : Matroska
    Format version                           : Version 4 / Version 2
    File size                                : 13.6 GiB
    Duration                                 : 1 h 57 min
    Overall bit rate                         : 16.6 Mb/s
    Movie name                               : CinemaniaHDD.net
    Encoded date                             : UTC 2018-06-13 22:27:55 / UTC 2018-06-10T03:19:45Z
    Writing application                      : mkvmerge v15.0.0 ('Duel with the Devil') 64-bit
    Writing library                          : libebml v1.3.5 + libmatroska v1.4.5 / Lavf57.7.2

    Video
    ID                                       : 1
    Format                                   : AVC
    Format/Info                              : Advanced Video Codec
    Format profile                           : High@L4.1
    Format settings                          : CABAC / 4 Ref Frames
    Format settings, CABAC                   : Yes
    Format settings, RefFrames               : 4 frames
    Codec ID                                 : V_MPEG4/ISO/AVC
    Duration                                 : 1 h 57 min
    Bit rate                                 : 14.3 Mb/s
    Width                                    : 1 920 pixels
    Height                                   : 1 080 pixels
    Display aspect ratio                     : 16:9
    Frame rate mode                          : Constant
    Frame rate                               : 23.976 (24000/1001) FPS
    Color space                              : YUV
    Chroma subsampling                       : 4:2:0
    Bit depth                                : 8 bits
    Scan type                                : Progressive
    Bits/(Pixel*Frame)                       : 0.288
    Stream size                              : 11.7 GiB (86%)
    Title                                    : Un día para sobrevivir (2011) [Open Matte] Full 1080p Latino
    Writing library                          : x264 core 148 r2708 86b7198
    Encoding settings                        : cabac=1 / ref=4 / deblock=1:0:0 / analyse=0x3:0x133 / me=esa / subme=9 / psy=1 / psy_rd=1.00:0.00 / mixed_ref=1 / me_range=16 / chroma_me=1 / trellis=2 / 8x8dct=1 / cqm=0 / deadzone=21,11 / fast_pskip=1 / chroma_qp_offset=-2 / threads=34 / lookahead_threads=2 / sliced_threads=0 / nr=0 / decimate=1 / interlaced=0 / bluray_compat=0 / constrained_intra=0 / bframes=3 / b_pyramid=2 / b_adapt=2 / b_bias=0 / direct=3 / weightb=1 / open_gop=0 / weightp=2 / keyint=240 / keyint_min=24 / scenecut=40 / intra_refresh=0 / rc_lookahead=60 / rc=crf / mbtree=1 / crf=20.0 / qcomp=0.60 / qpmin=0 / qpmax=69 / qpstep=4 / vbv_maxrate=62500 / vbv_bufsize=78125 / crf_max=0.0 / nal_hrd=none / filler=0 / ip_ratio=1.40 / aq=1:1.00
    Language                                 : English
    Default                                  : Yes
    Forced                                   : No
    Color range                              : Limited
    Color primaries                          : BT.709
    Transfer characteristics                 : BT.709
    Matrix coefficients                      : BT.709
    Statistics Tags Issue                    : mkvmerge v15.0.0 ('Duel with the Devil') 64-bit 2018-06-13 22:27:55 / mkvmerge v15.0.0 ('Duel with the Devil') 64-bit 2018-06-13 22:27:55 / UTC 2018-06-10T03:19:45Z
    FromStats_BitRate                        : 14620942
    FromStats_Duration                       : 01:57:08.021000000
    FromStats_FrameCount                     : 168504
    FromStats_StreamSize                     : 12844536033

    Audio #1
    ID                                       : 2
    Format                                   : AC-3
    Format/Info                              : Audio Coding 3
    Format settings, Endianness              : Big
    Codec ID                                 : A_AC3
    Duration                                 : 1 h 57 min
    Bit rate mode                            : Constant
    Bit rate                                 : 448 kb/s
    Channel(s)                               : 6 channels
    Channel positions                        : Front: L C R, Side: L R, LFE
    Sampling rate                            : 48.0 kHz
    Frame rate                               : 31.250 FPS (1536 SPF)
    Bit depth                                : 16 bits
    Compression mode                         : Lossy
    Delay relative to video                  : 28 ms
    Stream size                              : 375 MiB (3%)
    Language                                 : Spanish
    Service kind                             : Complete Main
    Default                                  : Yes
    Forced                                   : No
    Statistics Tags Issue                    : mkvmerge v15.0.0 ('Duel with the Devil') 64-bit 2018-06-13 22:27:55 / mkvmerge v15.0.0 ('Duel with the Devil') 64-bit 2018-06-13 22:27:55 / UTC 2018-06-10T03:19:45Z
    FromStats_BitRate                        : 448000
    FromStats_Duration                       : 01:57:07.968000000
    FromStats_FrameCount                     : 219624
    FromStats_StreamSize                     : 393566208

    Audio #2
    ID                                       : 3
    Format                                   : DTS
    Format/Info                              : Digital Theater Systems
    Mode                                     : 16
    Format settings, Endianness              : Big
    Codec ID                                 : A_DTS
    Duration                                 : 1 h 57 min
    Bit rate mode                            : Constant
    Bit rate                                 : 1 509 kb/s
    Channel(s)                               : 6 channels
    Channel positions                        : Front: L C R, Side: L R, LFE
    Sampling rate                            : 48.0 kHz
    Frame rate                               : 93.750 FPS (512 SPF)
    Bit depth                                : 24 bits
    Compression mode                         : Lossy
    Stream size                              : 1.23 GiB (9%)
    Language                                 : English
    Default                                  : No
    Forced                                   : No
    Statistics Tags Issue                    : mkvmerge v15.0.0 ('Duel with the Devil') 64-bit 2018-06-13 22:27:55 / mkvmerge v15.0.0 ('Duel with the Devil') 64-bit 2018-06-13 22:27:55 / UTC 2018-06-10T03:19:45Z
    FromStats_BitRate                        : 1508999
    FromStats_Duration                       : 01:57:08.971000000
    FromStats_FrameCount                     : 658966
    FromStats_StreamSize                     : 1325839592

    Text #1
    ID                                       : 4
    Format                                   : UTF-8
    Codec ID                                 : S_TEXT/UTF8
    Codec ID/Info                            : UTF-8 Plain Text
    Language                                 : Spanish
    Default                                  : No
    Forced                                   : No
    Statistics Tags Issue                    : mkvmerge v15.0.0 ('Duel with the Devil') 64-bit 2018-06-13 22:27:55 / mkvmerge v15.0.0 ('Duel with the Devil') 64-bit 2018-06-13 22:27:55 / UTC 2018-06-10T03:19:45Z
    FromStats_BitRate                        : 37
    FromStats_Duration                       : 01:48:09.581000000
    FromStats_FrameCount                     : 1027
    FromStats_StreamSize                     : 30584

    Text #2
    ID                                       : 5
    Format                                   : PGS
    Muxing mode                              : zlib
    Codec ID                                 : S_HDMV/PGS
    Codec ID/Info                            : Picture based subtitle format used on BDs/HD-DVDs
    Language                                 : Spanish
    Default                                  : No
    Forced                                   : No
    Statistics Tags Issue                    : mkvmerge v15.0.0 ('Duel with the Devil') 64-bit 2018-06-13 22:27:55 / mkvmerge v15.0.0 ('Duel with the Devil') 64-bit 2018-06-13 22:27:55 / UTC 2018-06-10T03:19:45Z
    FromStats_BitRate                        : 34612
    FromStats_Duration                       : 01:48:09.573000000
    FromStats_FrameCount                     : 2054
    FromStats_StreamSize                     : 28077799

    Text #3
    ID                                       : 6
    Format                                   : PGS
    Muxing mode                              : zlib
    Codec ID                                 : S_HDMV/PGS
    Codec ID/Info                            : Picture based subtitle format used on BDs/HD-DVDs
    Language                                 : English
    Default                                  : No
    Forced                                   : No
    Statistics Tags Issue                    : mkvmerge v15.0.0 ('Duel with the Devil') 64-bit 2018-06-13 22:27:55 / mkvmerge v15.0.0 ('Duel with the Devil') 64-bit 2018-06-13 22:27:55 / UTC 2018-06-10T03:19:45Z
    FromStats_BitRate                        : 28958
    FromStats_Duration                       : 01:56:04.082000000
    FromStats_FrameCount                     : 2564
    FromStats_StreamSize                     : 25208842

    Menu
    00:00:00.000                             : :Chapter 1
    00:07:07.302                             : :Chapter 2
    00:11:33.860                             : :Chapter 3
    00:17:51.946                             : :Chapter 4
    00:23:41.170                             : :Chapter 5
    00:30:47.095                             : :Chapter 6
    00:35:30.045                             : :Chapter 7
    00:43:29.190                             : :Chapter 8
    00:47:08.242                             : :Chapter 9
    00:50:56.136                             : :Chapter 10
    00:59:04.791                             : :Chapter 11
    01:04:05.884                             : :Chapter 12
    01:11:31.370                             : :Chapter 13
    01:14:54.490                             : :Chapter 14
    01:19:53.372                             : :Chapter 15
    01:24:15.300                             : :Chapter 16
    01:33:33.566                             : :Chapter 17
    01:39:00.977                             : :Chapter 18
    01:41:12.650                             : :Chapter 19
    01:49:22.347                             : :Chapter 20

  • Peso: 13.6 GiB

Sinopsis

En “Infierno blanco”, el personaje interpretado por Liam Neeson es el líder de un indisciplinado grupo de trabajadores de una refinería cuyo avión se estrella en las remotas montañas de Alaska. Los supervivientes, expuestos a heridas mortales y un tiempo inclemente, disponen de pocos días para escapar de los gélidos elementos. Y por si el terrible frío fuera poco enemigo, una manada de lobos salvajes, amenazantes y sanguinarios, persiguen incansablemente a sus presas humanas. A medida que las indefensas víctimas caen una a una, las posibilidades de supervivencia del último de estos hombres son cada vez más remotas.

Ficha técnica

Video trailer de la película

Enlaces de descarga

Rip de Bluray

Descargar Un día para sobrevivir (2011) [Open Matte] Full 1080p Latino




Aportes de DPeliculasHDmega la pass es:dpeliculashdmega.org Aportes de CinemaniaHD la pass es:cinemaniahdd.com

Películas relacionadas

  • Godzilla (2014) 1080p Latino

    2014
    Godzilla (2014) 1080p Latino

    0.0 2h 3m 2014

    Descargar Godzilla (2014) 1080p Latino, Mega, Google Drive, Torrent. Gareth Edwards dirige este "reboot",...

    Director: Jessica Clothier

    Género: Acción

    Actores: Yuki Morita

  • Godzilla (2014) Full 1080p Latino

    2014
    Godzilla (2014) Full 1080p Latino

    4.2 2h 3m 2014

    Descargar Godzilla (2014) Full 1080p Latino, Mega, Google Drive, Torrent. Gareth Edwards dirige este...

    Director: Jessica Clothier

    Género: Acción

    Actores: Yuki Morita

  • Un pequeño favor (2018) Full 1080p Latino

    2018
    Un pequeño favor (2018) Full 1080p Latino

    5.0 1h 57m 2018

    Descargar Un pequeño favor (2018) Full 1080p Latino, Mega, Google Drive, Torrent. Stephanie es una joven...

    Director: Paul Feig

    Género: Crimen

    Actores: Zach Smadu

Comentarios 1
  • esteban - 22 julio, 2018

    suban piratas del caribe en open matte porfavor