Un cigüeña en Apuros (2017) 1080p Latino

2.645 vistas
1 estrella2 estrellas3 estrellas4 estrellas5 estrellas (Ninguna valoración todavía)
Cargando…

Información de Un cigüeña en Apuros (2017) 1080p Latino

Datos de la película

  • Calidad: 1080p
  • Audio: Español Latino AC3 2.0 iTUNES - Ingles AC3 5.1 BLURAY
  • Subtitulos: Español Latino SRT - Ingles SRT
  • Resolución: 1912x1032p
  • Formato: MKV
  • Codec: H.264
  • Encoder: Dpelis
  • Mediainfo: Clic para Mostrar Datos Ver
  • A Storks Journey (2017) 1080p Latino.mkv
    Format                      : Matroska
    Format version              : Version 4 / Version 2
    File size                   : 2.33 GiB
    Duration                    : 1 h 24 min
    Overall bit rate            : 3 950 kb/s
    Movie name                  : DPeliculasHDMega.ORG
    Encoded date                : UTC 2017-10-18 23:09:53 / UTC 2017-10-18T22:26:12Z
    Writing application         : mkvmerge v10.0.0 ('To Drown In You') 64bit
    Writing library             : libebml v1.3.4 + libmatroska v1.4.5 / Lavf57.7.2

    Video
    ID                          : 1
    Format                      : AVC
    Format/Info                 : Advanced Video Codec
    Format profile              : [email protected]
    Format settings, CABAC      : Yes
    Format settings, RefFrames  : 4 frames
    Codec ID                    : V_MPEG4/ISO/AVC
    Duration                    : 1 h 24 min
    Bit rate                    : 3 295 kb/s
    Nominal bit rate            : 3 500 kb/s
    Width                       : 1 920 pixels
    Height                      : 1 040 pixels
    Display aspect ratio        : 1.85:1
    Frame rate mode             : Constant
    Frame rate                  : 23.976 (24000/1001) FPS
    Color space                 : YUV
    Chroma subsampling          : 4:2:0
    Bit depth                   : 8 bits
    Scan type                   : Progressive
    Bits/(Pixel*Frame)          : 0.069
    Stream size                 : 1.94 GiB (83%)
    Writing library             : x264 core 148 r2708 86b7198
    Encoding settings           : cabac=1 / ref=4 / deblock=1:0:0 / analyse=0x3:0x113 / me=umh / subme=8 / psy=1 / psy_rd=1.00:0.00 / mixed_ref=1 / me_range=16 / chroma_me=1 / trellis=1 / 8x8dct=1 / cqm=0 / deadzone=21,11 / fast_pskip=1 / chroma_qp_offset=-2 / threads=32 / lookahead_threads=5 / sliced_threads=0 / nr=0 / decimate=1 / interlaced=0 / bluray_compat=0 / constrained_intra=0 / bframes=3 / b_pyramid=2 / b_adapt=2 / b_bias=0 / direct=3 / weightb=1 / open_gop=0 / weightp=2 / keyint=240 / keyint_min=24 / scenecut=40 / intra_refresh=0 / rc_lookahead=50 / rc=abr / mbtree=1 / bitrate=3500 / ratetol=1.0 / qcomp=0.60 / qpmin=0 / qpmax=69 / qpstep=4 / vbv_maxrate=62500 / vbv_bufsize=78125 / nal_hrd=none / filler=0 / ip_ratio=1.40 / aq=1:1.00
    Default                     : Yes
    Forced                      : No
    Color range                 : Limited
    Color primaries             : BT.709
    Transfer characteristics    : BT.709
    Matrix coefficients         : BT.709
    Statistics Tags Issue       : mkvmerge v10.0.0 ('To Drown In You') 64bit 2017-10-18 23:09:53 / mkvmerge v10.0.0 ('To Drown In You') 64bit 2017-10-18 23:09:53 / UTC 2017-10-18T22:26:12Z
    FromStats_BitRate           : 3372258
    FromStats_Duration          : 01:24:21.682000000
    FromStats_FrameCount        : 121359
    FromStats_StreamSize        : 2133662657

    Audio #1
    ID                          : 2
    Format                      : AC-3
    Format/Info                 : Audio Coding 3
    Format settings, Endianness : Big
    Codec ID                    : A_AC3
    Duration                    : 1 h 24 min
    Bit rate mode               : Constant
    Bit rate                    : 192 kb/s
    Channel(s)                  : 2 channels
    Channel positions           : Front: L R
    Sampling rate               : 48.0 kHz
    Frame rate                  : 31.250 FPS (1536 SPF)
    Bit depth                   : 16 bits
    Compression mode            : Lossy
    Delay relative to video     : 19 ms
    Stream size                 : 116 MiB (5%)
    Language                    : Spanish
    Service kind                : Complete Main
    Default                     : Yes
    Forced                      : No
    Statistics Tags Issue       : mkvmerge v10.0.0 ('To Drown In You') 64bit 2017-10-18 23:09:53 / mkvmerge v10.0.0 ('To Drown In You') 64bit 2017-10-18 23:09:53 / UTC 2017-10-18T22:26:12Z
    FromStats_BitRate           : 192000
    FromStats_Duration          : 01:24:10.560000000
    FromStats_FrameCount        : 157830
    FromStats_StreamSize        : 121213440

    Audio #2
    ID                          : 3
    Format                      : AC-3
    Format/Info                 : Audio Coding 3
    Format settings, Endianness : Big
    Codec ID                    : A_AC3
    Duration                    : 1 h 24 min
    Bit rate mode               : Constant
    Bit rate                    : 384 kb/s
    Channel(s)                  : 6 channels
    Channel positions           : Front: L C R, Side: L R, LFE
    Sampling rate               : 48.0 kHz
    Frame rate                  : 31.250 FPS (1536 SPF)
    Bit depth                   : 16 bits
    Compression mode            : Lossy
    Delay relative to video     : -5 ms
    Stream size                 : 232 MiB (10%)
    Title                       : Surround
    Language                    : English
    Service kind                : Complete Main
    Default                     : No
    Forced                      : No
    Statistics Tags Issue       : mkvmerge v10.0.0 ('To Drown In You') 64bit 2017-10-18 23:09:53 / mkvmerge v10.0.0 ('To Drown In You') 64bit 2017-10-18 23:09:53 / UTC 2017-10-18T22:26:12Z
    FromStats_BitRate           : 384000
    FromStats_Duration          : 01:24:21.664000000
    FromStats_FrameCount        : 158177
    FromStats_StreamSize        : 242959872

    Text
    ID                          : 4
    Format                      : UTF-8
    Codec ID                    : S_TEXT/UTF8
    Codec ID/Info               : UTF-8 Plain Text
    Language                    : Spanish
    Default                     : Yes
    Forced                      : No
    Statistics Tags Issue       : mkvmerge v10.0.0 ('To Drown In You') 64bit 2017-10-18 23:09:53 / mkvmerge v10.0.0 ('To Drown In You') 64bit 2017-10-18 23:09:53 / UTC 2017-10-18T22:26:12Z
    FromStats_BitRate           : 56
    FromStats_Duration          : 01:17:08.839000000
    FromStats_FrameCount        : 1048
    FromStats_StreamSize        : 32906

    Menu
    00:00:00.000                : :00:00:00.000
    00:10:06.022                : :00:10:06.022
    00:21:00.009                : :00:21:00.009
    00:31:02.444                : :00:31:02.444
    00:43:06.000                : :00:43:06.000
    00:52:04.622                : :00:52:04.538
    01:03:14.082                : :01:03:14.082
    01:13:09.760                : :01:13:09.760
    01:18:29.955                : :01:18:29.955

  • Peso: 3.39 GB

Sinopsis

Descargar Un cigüeña en Apuros hd latino Una pelicula familiar,  Richard –un gorrión– ha sido adoptado y criado por una familia de cigüeñas, y está convencido de ser una de ellas. Pero surgen problemas cuando las cigüeñas, aves migratorias, parten hacia África para pasar el invierno. Richard quiere partir también, y empieza a hacer autostop por toda Europa, en autobús, tren, y barco, junto con un búho excéntrico y un periquito divertidísimo que canta disco, para demostrar a su familia de cigüeñas que él también es una de ellas.

Ficha técnica

  • Titulo original: A Stork's Journey
  • Fecha de lanzamiento: 11-05-2017 (Belgium, Germany, Luxembourg, Norway)
  • Director: Reza Memari, Toby Genkel
  • Género: Animación, Aventura
  • Puntuación: 0.0 0 votos
  • Duración:
    1h 25m

Video trailer de la película

Enlaces de descarga

Rip de Bluray

Descargar Un cigüeña en Apuros (2017) 1080p Latino




Aportes de DPeliculasHDmega la pass es:dpeliculashdmega.org Aportes de CinemaniaHD la pass es:cinemaniahdd.com
Guardado en : Animación , Aventura

Películas relacionadas

Comentarios 1
  • jurez - 22 octubre, 2017

    Gracias!! Lo vi pirata en YT y me gusto mucho, mientras lo veia pensaba que era esas animaciones clase B que abundan en youtube pero me sorprendio la calidad de historia que tenia 😀