Un caballero y su revolver (2018) Full HD 1080p Español Latino

734 vistas
1 estrella2 estrellas3 estrellas4 estrellas5 estrellas (1 votos, promedio: 3,00 de 5)
Cargando…

Información de Un caballero y su revolver (2018) Full HD 1080p Español Latino

Datos de la película

  • Calidad: Full 1080p
  • Audio: Español Latino AC3 5.1 BLURAY - Ingles DTS 5.1 BLURAY
  • Subtitulos: Español Latino PGS - Ingles PGS
  • Resolución: 1920x1080
  • Formato: MKV
  • Codec: H.264
  • Encoder: chesse92
  • Mediainfo: Clic para Mostrar Datos Ver
  • The Old Man And The Gun (2018) Full HD 1080p Español Latino.mkv
    Format                      : Matroska
    Format version              : Version 4
    File size                   : 7.98 GiB
    Duration                    : 1 h 33 min
    Overall bit rate            : 12.3 Mb/s
    Movie name                  : CinemaniaHDD.net
    Encoded date                : UTC 2019-01-11 03:48:12 / UTC 2019-01-10T13:30:25Z
    Writing application         : mkvmerge v29.0.0 ('Like It Or Not') 64-bit
    Writing library             : libebml v1.3.6 + libmatroska v1.4.9 / Lavf57.7.2

    Video
    ID                          : 1
    Format                      : AVC
    Format/Info                 : Advanced Video Codec
    Format profile              : [email protected]
    Format settings             : CABAC / 4 Ref Frames
    Format settings, CABAC      : Yes
    Format settings, ReFrames   : 4 frames
    Codec ID                    : V_MPEG4/ISO/AVC
    Duration                    : 1 h 33 min
    Bit rate                    : 10.1 Mb/s
    Width                       : 1 920 pixels
    Height                      : 1 080 pixels
    Display aspect ratio        : 16:9
    Frame rate mode             : Constant
    Frame rate                  : 23.976 (24000/1001) FPS
    Color space                 : YUV
    Chroma subsampling          : 4:2:0
    Bit depth                   : 8 bits
    Scan type                   : Progressive
    Bits/(Pixel*Frame)          : 0.203
    Stream size                 : 6.55 GiB (82%)
    Writing library             : x264 core 155 r2901 7d0ff22
    Encoding settings           : cabac=1 / ref=4 / deblock=1:0:0 / analyse=0x3:0x133 / me=esa / subme=10 / psy=1 / psy_rd=1.00:0.00 / mixed_ref=1 / me_range=24 / chroma_me=1 / trellis=2 / 8x8dct=1 / cqm=0 / deadzone=21,11 / fast_pskip=1 / chroma_qp_offset=-2 / threads=34 / lookahead_threads=5 / sliced_threads=0 / nr=0 / decimate=1 / interlaced=0 / bluray_compat=0 / constrained_intra=0 / bframes=8 / b_pyramid=2 / b_adapt=2 / b_bias=0 / direct=3 / weightb=1 / open_gop=0 / weightp=2 / keyint=240 / keyint_min=24 / scenecut=40 / intra_refresh=0 / rc_lookahead=60 / rc=crf / mbtree=1 / crf=20.0 / qcomp=0.60 / qpmin=0 / qpmax=69 / qpstep=4 / vbv_maxrate=62500 / vbv_bufsize=78125 / crf_max=0.0 / nal_hrd=none / filler=0 / ip_ratio=1.40 / aq=1:1.00
    Default                     : Yes
    Forced                      : No
    Color range                 : Limited
    Color primaries             : BT.709
    Transfer characteristics    : BT.709
    Matrix coefficients         : BT.709
    Statistics Tags Issue       : mkvmerge v29.0.0 ('Like It Or Not') 64-bit 2019-01-11 03:48:12 / mkvmerge v29.0.0 ('Like It Or Not') 64-bit 2019-01-11 03:48:12 / UTC 2019-01-10T13:30:25Z
    FromStats_BitRate           : 10242610
    FromStats_Duration          : 01:33:03.829000000
    FromStats_FrameCount        : 133878
    FromStats_StreamSize        : 7149122975

    Audio #1
    ID                          : 2
    Format                      : AC-3
    Format/Info                 : Audio Coding 3
    Commercial name             : Dolby Digital
    Codec ID                    : A_AC3
    Duration                    : 1 h 33 min
    Bit rate mode               : Constant
    Bit rate                    : 448 kb/s
    Channel(s)                  : 6 channels
    Channel layout              : L R C LFE Ls Rs
    Sampling rate               : 48.0 kHz
    Frame rate                  : 31.250 FPS (1536 SPF)
    Bit depth                   : 16 bits
    Compression mode            : Lossy
    Stream size                 : 298 MiB (4%)
    Title                       : Surround
    Language                    : Spanish
    Service kind                : Complete Main
    Default                     : Yes
    Forced                      : No
    Statistics Tags Issue       : mkvmerge v29.0.0 ('Like It Or Not') 64-bit 2019-01-11 03:48:12 / mkvmerge v29.0.0 ('Like It Or Not') 64-bit 2019-01-11 03:48:12 / UTC 2019-01-10T13:30:25Z
    FromStats_BitRate           : 448000
    FromStats_Duration          : 01:33:03.840000000
    FromStats_FrameCount        : 174495
    FromStats_StreamSize        : 312695040

    Audio #2
    ID                          : 3
    Format                      : DTS
    Format/Info                 : Digital Theater Systems
    Codec ID                    : A_DTS
    Duration                    : 1 h 33 min
    Bit rate mode               : Constant
    Bit rate                    : 1 509 kb/s
    Channel(s)                  : 6 channels
    Channel layout              : C L R Ls Rs LFE
    Sampling rate               : 48.0 kHz
    Frame rate                  : 93.750 FPS (512 SPF)
    Bit depth                   : 24 bits
    Compression mode            : Lossy
    Stream size                 : 1 004 MiB (12%)
    Title                       : Surround
    Language                    : English
    Default                     : No
    Forced                      : No
    Statistics Tags Issue       : mkvmerge v29.0.0 ('Like It Or Not') 64-bit 2019-01-11 03:48:12 / mkvmerge v29.0.0 ('Like It Or Not') 64-bit 2019-01-11 03:48:12 / UTC 2019-01-10T13:30:25Z
    FromStats_BitRate           : 1508999
    FromStats_Duration          : 01:33:03.830000000
    FromStats_FrameCount        : 523484
    FromStats_StreamSize        : 1053249808

    Text #1
    ID                          : 4
    Format                      : PGS
    Muxing mode                 : zlib
    Codec ID                    : S_HDMV/PGS
    Codec ID/Info               : Picture based subtitle format used on BDs/HD-DVDs
    Language                    : Spanish
    Default                     : No
    Forced                      : No
    Statistics Tags Issue       : mkvmerge v29.0.0 ('Like It Or Not') 64-bit 2019-01-11 03:48:12 / mkvmerge v29.0.0 ('Like It Or Not') 64-bit 2019-01-11 03:48:12 / UTC 2019-01-10T13:30:25Z
    FromStats_BitRate           : 31976
    FromStats_Duration          : 01:32:30.086000000
    FromStats_FrameCount        : 1932
    FromStats_StreamSize        : 22183792

    Text #2
    ID                          : 5
    Format                      : PGS
    Muxing mode                 : zlib
    Codec ID                    : S_HDMV/PGS
    Codec ID/Info               : Picture based subtitle format used on BDs/HD-DVDs
    Language                    : Spanish
    Default                     : No
    Forced                      : No
    Statistics Tags Issue       : mkvmerge v29.0.0 ('Like It Or Not') 64-bit 2019-01-11 03:48:12 / mkvmerge v29.0.0 ('Like It Or Not') 64-bit 2019-01-11 03:48:12 / UTC 2019-01-10T13:30:25Z
    FromStats_BitRate           : 107
    FromStats_Duration          : 01:09:38.382000000
    FromStats_FrameCount        : 6
    FromStats_StreamSize        : 56363

    Text #3
    ID                          : 6
    Format                      : PGS
    Muxing mode                 : zlib
    Codec ID                    : S_HDMV/PGS
    Codec ID/Info               : Picture based subtitle format used on BDs/HD-DVDs
    Language                    : Spanish
    Default                     : No
    Forced                      : No
    Statistics Tags Issue       : mkvmerge v29.0.0 ('Like It Or Not') 64-bit 2019-01-11 03:48:12 / mkvmerge v29.0.0 ('Like It Or Not') 64-bit 2019-01-11 03:48:12 / UTC 2019-01-10T13:30:25Z
    FromStats_BitRate           : 88118
    FromStats_Duration          : 01:32:57.614000000
    FromStats_FrameCount        : 3874
    FromStats_StreamSize        : 61436357

    Text #4
    ID                          : 7
    Format                      : PGS
    Muxing mode                 : zlib
    Codec ID                    : S_HDMV/PGS
    Codec ID/Info               : Picture based subtitle format used on BDs/HD-DVDs
    Language                    : English
    Default                     : No
    Forced                      : No
    Statistics Tags Issue       : mkvmerge v29.0.0 ('Like It Or Not') 64-bit 2019-01-11 03:48:12 / mkvmerge v29.0.0 ('Like It Or Not') 64-bit 2019-01-11 03:48:12 / UTC 2019-01-10T13:30:25Z
    FromStats_BitRate           : 45858
    FromStats_Duration          : 01:30:18.872000000
    FromStats_FrameCount        : 2818
    FromStats_StreamSize        : 31062424

    Text #5
    ID                          : 8
    Format                      : UTF-8
    Codec ID                    : S_TEXT/UTF8
    Codec ID/Info               : UTF-8 Plain Text
    Language                    : Spanish
    Default                     : Yes
    Forced                      : No
    Statistics Tags Issue       : mkvmerge v29.0.0 ('Like It Or Not') 64-bit 2019-01-11 03:48:12 / mkvmerge v29.0.0 ('Like It Or Not') 64-bit 2019-01-11 03:48:12 / UTC 2019-01-10T13:30:25Z
    FromStats_BitRate           : 51
    FromStats_Duration          : 01:26:30.712000000
    FromStats_FrameCount        : 971
    FromStats_StreamSize        : 33365

    Menu
    00:00:00.000                : :Chapter 1
    00:03:21.743                : :Chapter 2
    00:08:18.498                : :Chapter 3
    00:13:36.024                : :Chapter 4
    00:19:34.507                : :Chapter 5
    00:23:02.339                : :Chapter 6
    00:26:35.761                : :Chapter 7
    00:30:39.046                : :Chapter 8
    00:34:17.556                : :Chapter 9
    00:38:02.155                : :Chapter 10
    00:41:30.697                : :Chapter 11
    00:44:40.887                : :Chapter 12
    00:48:19.230                : :Chapter 13
    00:50:06.003                : :Chapter 14
    00:53:44.430                : :Chapter 15
    00:56:18.876                : :Chapter 16
    01:00:10.065                : :Chapter 17
    01:04:19.022                : :Chapter 18
    01:09:41.052                : :Chapter 19
    01:14:20.790                : :Chapter 20
    01:18:02.595                : :Chapter 21
    01:21:18.374                : :Chapter 22
    01:24:33.944                : :Chapter 23
    01:26:50.080                : :Chapter 24

  • Peso: 7.98 GiB

Sinopsis

Narra una historia real, la de Forrest Tucker, un ladrón de bancos que pasó la mayor parte de su vida en la cárcel o intentando escapar de ella. De hecho, logró fugarse en 18 ocasiones y cometió su último atraco en el año 2000 cuando tenía 80 años.

Ficha técnica

Video trailer de la película

Enlaces de descarga

Rip de Bluray

Descargar Un caballero y su revolver (2018) Full HD 1080p Español Latino




Aportes de DPeliculasHDmega la pass es:dpeliculashdmega.org Aportes de CinemaniaHD la pass es:cinemaniahdd.com

Películas relacionadas

  • The mule (2018) WEB-DL 1080p Latino

    2018
    The mule (2018) WEB-DL 1080p Latino

    0.0 1h 56m 2018

    A Earl Stone (Eastwood), un octogenario que está en quiebra, solo, y que se enfrenta a la ejecución...

    Director: Clint Eastwood

    Género: Crimen

    Actores: Victor Rasuk

  • Swing (2018) WEB-DL 1080p Latino

    2018
    Swing (2018) WEB-DL 1080p Latino

    0.0 1h 44m 2018

    En una noche en la que predomina el alcohol, cuatro amigos deciden intercambiar a sus parejas. Esta decisión...

    Director: Luis Smok

    Género: Comedia

    Actores: Tiago Correa

  • Aquaman (2018) Full HD 1080p Latino

    2018
    Aquaman (2018) Full HD 1080p Latino

    5.0 2h 24m 2018

    Un icono durante más de 70 años, Aquaman (Jason Momoa) es el Rey de los Siete Mares. Este reacio gobernante...

    Director: James Wan

    Género: Acción

    Actores: Yahya Abdul-Mateen II

  • Nace Una Estrella (2018) 4K UHD HDR Latino

    2018
    Nace Una Estrella (2018) 4K UHD HDR Latino

    0.0 2h 25m 2018

    Descargar Nace Una Estrella (2018) 4K UHD HDR Latino, Mega, Google Drive. Jackson Maine es una estrella...

    Director: Bradley Cooper

    Género: 4K HDR

    Actores: Willam Belli

Comentarios 0