×

¿Problemas para descargar con Mozilla, EDGE? Deshabilita la opción "Abrir vinculos en una pestaña nueva" tal como lo muestra ésta imagen.

Un buen día en el vecindario (2019) 4K UHD HDR Latino

893 vistas

Información de Un buen día en el vecindario (2019) 4K UHD HDR Latino

Datos de la película

  • Calidad: 4K HDR
  • Audio: Español Latino AC3 5.1 BLURAY - Ingles DTS 5.1 BLURAY
  • Subtitulos: Español Latino PGS - Ingles PGS
  • Resolución: 3840x2076p
  • Formato: MKV
  • Codec: HEVC
  • Encoder: CinefiloCool
  • Mediainfo: Clic para Mostrar Datos Ver
  • Un buen dia en el vecindario (2019) UHD HDR Latino-CMHDD.mkv
    Format                      : Matroska
    Format version              : Version 4
    File size                   : 12.0 GiB
    Duration                    : 1 h 48 min
    Overall bit rate            : 15.8 Mb/s
    Movie name                  : CinemaniaHDD.Net
    Encoded date                : UTC 2020-02-11 23:56:41
    Writing application         : mkvmerge v42.0.0 ('Overtime') 64-bit
    Writing library             : libebml v1.3.10 + libmatroska v1.5.2
    Attachments                 : CINEMANIAHD.png

    Video
    ID                          : 1
    Format                      : HEVC
    Format/Info                 : High Efficiency Video Coding
    Commercial name             : HDR10
    Format profile              : Main 10@L5.1@High
    Codec ID                    : V_MPEGH/ISO/HEVC
    Duration                    : 1 h 48 min
    Bit rate                    : 13.6 Mb/s
    Width                       : 3 840 pixels
    Height                      : 2 076 pixels
    Display aspect ratio        : 1.85:1
    Frame rate mode             : Constant
    Frame rate                  : 23.976 (24000/1001) FPS
    Color space                 : YUV
    Chroma subsampling          : 4:2:0 (Type 2)
    Bit depth                   : 10 bits
    Bits/(Pixel*Frame)          : 0.071
    Stream size                 : 10.4 GiB (86%)
    Title                       : 2160p HDR [Bluray]
    Writing library             : x265 3.2+23-52135ffd9bcd:[Windows][GCC 9.2.1][64 bit] 10bit
    Encoding settings           : cpuid=1176575 / frame-threads=6 / numa-pools=36 / wpp / no-pmode / no-pme / no-psnr / no-ssim / log-level=2 / input-csp=1 / input-res=3840x2076 / interlace=0 / total-frames=156442 / level-idc=51 / high-tier=1 / uhd-bd=0 / ref=4 / no-allow-non-conformance / repeat-headers / annexb / aud / hrd / info / hash=0 / no-temporal-layers / no-open-gop / min-keyint=1 / keyint=24 / gop-lookahead=0 / bframes=4 / b-adapt=2 / b-pyramid / bframe-bias=0 / rc-lookahead=25 / lookahead-slices=4 / scenecut=40 / hist-scenecut=0 / radl=0 / no-splice / no-intra-refresh / ctu=64 / min-cu-size=8 / rect / no-amp / max-tu-size=32 / tu-inter-depth=1 / tu-intra-depth=1 / limit-tu=0 / rdoq-level=2 / dynamic-rd=0.00 / no-ssim-rd / signhide / no-tskip / nr-intra=0 / nr-inter=0 / no-constrained-intra / no-strong-intra-smoothing / max-merge=3 / limit-refs=3 / limit-modes / me=3 / subme=3 / merange=57 / temporal-mvp / no-frame-dup / no-hme / weightp / no-weightb / no-analyze-src-pics / deblock=-3:-3 / no-sao / no-sao-non-deblock / rd=4 / selective-sao=0 / no-early-skip / rskip / no-fast-intra / no-tskip-fast / no-cu-lossless / no-b-intra / no-splitrd-skip / rdpenalty=0 / psy-rd=2.00 / psy-rdoq=1.00 / no-rd-refine / no-lossless / cbqpoffs=0 / crqpoffs=0 / rc=crf / crf=17.0 / qcomp=0.60 / qpstep=4 / stats-write=0 / stats-read=0 / vbv-maxrate=160000 / vbv-bufsize=160000 / vbv-init=0.9 / crf-max=0.0 / crf-min=0.0 / ipratio=1.40 / pbratio=1.30 / aq-mode=1 / aq-strength=1.00 / cutree / zone-count=0 / no-strict-cbr / qg-size=32 / no-rc-grain / qpmax=69 / qpmin=0 / no-const-vbv / sar=1 / overscan=0 / videoformat=5 / range=0 / colorprim=9 / transfer=16 / colormatrix=9 / chromaloc=1 / chromaloc-top=2 / chromaloc-bottom=2 / display-window=0 / master-display=G(13250,34500)B(7500,3000)R(34000,16000)WP(15635,16450)L(40000000,50) / cll=1264,211 / min-luma=0 / max-luma=1023 / log2-max-poc-lsb=8 / vui-timing-info / vui-hrd-info / slices=1 / no-opt-qp-pps / no-opt-ref-list-length-pps / no-multi-pass-opt-rps / scenecut-bias=0.05 / hist-threshold=0.01 / no-opt-cu-delta-qp / no-aq-motion / hdr / hdr-opt / no-dhdr10-opt / no-idr-recovery-sei / analysis-reuse-level=5 / scale-factor=0 / refine-intra=0 / refine-inter=0 / refine-mv=1 / refine-ctu-distortion=0 / no-limit-sao / ctu-info=0 / no-lowpass-dct / refine-analysis-type=0 / copy-pic=1 / max-ausize-factor=1.0 / no-dynamic-refine / no-single-sei / no-hevc-aq / no-svt / no-field / qp-adaptation-range=1.00 / no-scenecut-aware-qp
    Default                     : Yes
    Forced                      : Yes
    Color range                 : Limited
    Color primaries             : BT.2020
    Transfer characteristics    : PQ
    Matrix coefficients         : BT.2020 non-constant
    Mastering display color pri : Display P3
    Mastering display luminance : min: 0.0050 cd/m2, max: 4000 cd/m2
    Maximum Content Light Level : 1264 cd/m2
    Maximum Frame-Average Light : 211 cd/m2

    Audio #1
    ID                          : 2
    Format                      : AC-3
    Format/Info                 : Audio Coding 3
    Commercial name             : Dolby Digital
    Codec ID                    : A_AC3
    Duration                    : 1 h 48 min
    Bit rate mode               : Constant
    Bit rate                    : 640 kb/s
    Channel(s)                  : 6 channels
    Channel layout              : L R C LFE Ls Rs
    Sampling rate               : 48.0 kHz
    Frame rate                  : 31.250 FPS (1536 SPF)
    Bit depth                   : 16 bits
    Compression mode            : Lossy
    Stream size                 : 498 MiB (4%)
    Title                       : AC3_5.1_Bluray_Esp
    Language                    : Spanish
    Service kind                : Complete Main
    Default                     : Yes
    Forced                      : Yes

    Audio #2
    ID                          : 3
    Format                      : DTS
    Format/Info                 : Digital Theater Systems
    Codec ID                    : A_DTS
    Duration                    : 1 h 48 min
    Bit rate mode               : Constant
    Bit rate                    : 1 509 kb/s
    Channel(s)                  : 6 channels
    Channel layout              : C L R Ls Rs LFE
    Sampling rate               : 48.0 kHz
    Frame rate                  : 93.750 FPS (512 SPF)
    Bit depth                   : 24 bits
    Compression mode            : Lossy
    Stream size                 : 1.15 GiB (10%)
    Title                       : DTS_5.1_Bluray_Eng
    Language                    : English
    Default                     : No
    Forced                      : No

    Text #1
    ID                          : 4
    Format                      : PGS
    Muxing mode                 : zlib
    Codec ID                    : S_HDMV/PGS
    Codec ID/Info               : Picture based subtitle format used on BDs/HD-DVDs
    Duration                    : 1 h 47 min
    Bit rate                    : 27.4 kb/s
    Count of elements           : 2326
    Stream size                 : 21.2 MiB (0%)
    Title                       : Sub_Esp [PGS]
    Language                    : Spanish
    Default                     : No
    Forced                      : No

    Text #2
    ID                          : 5
    Format                      : PGS
    Muxing mode                 : zlib
    Codec ID                    : S_HDMV/PGS
    Codec ID/Info               : Picture based subtitle format used on BDs/HD-DVDs
    Duration                    : 1 h 43 min
    Bit rate                    : 31.8 kb/s
    Count of elements           : 2548
    Stream size                 : 23.5 MiB (0%)
    Title                       : Sub_Eng [PGS]
    Language                    : English
    Default                     : No
    Forced                      : No

    Text #3
    ID                          : 6
    Format                      : UTF-8
    Codec ID                    : S_TEXT/UTF8
    Codec ID/Info               : UTF-8 Plain Text
    Duration                    : 1 h 42 min
    Bit rate                    : 54 b/s
    Count of elements           : 1138
    Stream size                 : 40.6 KiB (0%)
    Title                       : Sub_Esp
    Language                    : Spanish
    Default                     : No
    Forced                      : No

    Menu
    00:00:00.000                : en:Chapter 01
    00:07:00.128                : en:Chapter 02
    00:14:17.064                : en:Chapter 03
    00:20:55.754                : en:Chapter 04
    00:30:32.747                : en:Chapter 05
    00:37:30.915                : en:Chapter 06
    00:45:50.581                : en:Chapter 07
    00:50:13.510                : en:Chapter 08
    00:57:34.451                : en:Chapter 09
    01:03:19.462                : en:Chapter 10
    01:07:26.751                : en:Chapter 11
    01:10:36.732                : en:Chapter 12
    01:14:30.757                : en:Chapter 13
    01:17:33.482                : en:Chapter 14
    01:28:54.620                : en:Chapter 15
    01:37:28.217                : en:Chapter 16

  • Peso: 12.0 GiB

Sinopsis

Descargar Un buen día en el vecindario (2019) 4K UHD HDR Latino. Biopic de Fred Rogers, creador y presentador de un conocido programa de televisión para niños en los años 60 en Norteamérica.

Ficha técnica

  • Titulo original: A Beautiful Day in the Neighborhood
  • Fecha de lanzamiento: 22-11-2019 (United States of America)
  • Director: Marielle Heller
  • Género: 4K HDR, 4K UHD, Drama

Video trailer de la película

Enlaces de descarga

Rip de Bluray

Descargar Un buen día en el vecindario (2019) 4K UHD HDR Latino




Aportes de DPeliculasHDmega la pass es:dpeliculashdmega.org Aportes de CinemaniaHD la pass es:cinemaniahdd.com
Guardado en : 4K HDR , 4K UHD , Drama

Películas relacionadas

descargar Un buen día en el vecindario (2019) 4K UHD HDR Latino 4K HDR 1080p gratis, Un buen día en el vecindario (2019) 4K UHD HDR Latino 4K HDR mega 1 link, Un buen día en el vecindario (2019) 4K UHD HDR Latino 4K HDR pelicula completa, descargar Un buen día en el vecindario (2019) 4K UHD HDR Latino 4K HDR gratis en mega.

Un buen día en el vecindario (2019) 4K UHD HDR Latino pelicula full hd, Un buen día en el vecindario (2019) 4K UHD HDR Latino mega latino, Un buen día en el vecindario (2019) 4K UHD HDR Latino 4k latino, Un buen día en el vecindario (2019) 4K UHD HDR Latino pelicula completa, Un buen día en el vecindario (2019) 4K UHD HDR Latino descargar gratis, descargar Un buen día en el vecindario (2019) 4K UHD HDR Latino pelicula latino, Un buen día en el vecindario (2019) 4K UHD HDR Latino 1 link mega, Un buen día en el vecindario (2019) 4K UHD HDR Latino 1 link google drive, Un buen día en el vecindario (2019) 4K UHD HDR Latino hd 1080p latino.
Comentarios 0