×

¿Problemas para descargar con Mozilla, EDGE? Deshabilita la opción "Abrir vinculos en una pestaña nueva" tal como lo muestra ésta imagen.

Un Año Inolvidable – Verano (2023) AMZN WEB-DL 1080p Latino

208 vistas

Información de Un Año Inolvidable – Verano (2023) AMZN WEB-DL 1080p Latino

Datos de la película

  • Calidad: 1080p
  • Audio: Español Latino AC3 5.1
  • Subtitulos: Español Latino SRT- FORZADOS SRT
  • Resolución: 1920x1080
  • Formato: MKV
  • Codec: H.264
  • Encoder: cinemaniahdd
  • Mediainfo: Clic para Mostrar Datos Ver
  • Un Año Inolvidable - Verano (2023) AMZN WEB-DL 1080p Latino [CNMNHDD].mkv
    Format                      : Matroska
    Format version              : Version 4
    File size                   : 7.08 GiB
    Duration                    : 1 h 41 min
    Overall bit rate            : 10.0 Mb/s
    Movie name                  : Un Año Inolvidable - Verano (2023) [1080p] - CinemaniaHDD.Net
    Encoded date                : UTC 2023-06-02 00:15:00
    Writing application         : mkvmerge v56.1.0 ('My Friend') 64-bit
    Writing library             : libebml v1.4.2 + libmatroska v1.6.4

    Video
    ID                          : 1
    Format                      : AVC
    Format/Info                 : Advanced Video Codec
    Format profile              : High@L4
    Format settings             : CABAC / 4 Ref Frames
    Format settings, CABAC      : Yes
    Format settings, Reference  : 4 frames
    Codec ID                    : V_MPEG4/ISO/AVC
    Duration                    : 1 h 41 min
    Bit rate mode               : Constant
    Bit rate                    : 8 721 kb/s
    Nominal bit rate            : 10 000 kb/s
    Width                       : 1 920 pixels
    Height                      : 960 pixels
    Display aspect ratio        : 2.000
    Frame rate mode             : Constant
    Frame rate                  : 24.000 FPS
    Color space                 : YUV
    Chroma subsampling          : 4:2:0
    Bit depth                   : 8 bits
    Scan type                   : Progressive
    Bits/(Pixel*Frame)          : 0.197
    Stream size                 : 6.17 GiB (87%)
    Title                       : CinemaniaHDD
    Default                     : Yes
    Forced                      : No
    Color range                 : Limited
    Color primaries             : BT.709
    Transfer characteristics    : BT.709
    Matrix coefficients         : BT.709

    Audio #1
    ID                          : 2
    Format                      : AC-3
    Format/Info                 : Audio Coding 3
    Commercial name             : Dolby Digital
    Codec ID                    : A_AC3
    Duration                    : 1 h 41 min
    Bit rate mode               : Constant
    Bit rate                    : 640 kb/s
    Channel(s)                  : 6 channels
    Channel layout              : L R C LFE Ls Rs
    Sampling rate               : 48.0 kHz
    Frame rate                  : 31.250 FPS (1536 SPF)
    Compression mode            : Lossy
    Stream size                 : 464 MiB (6%)
    Title                       : Español Latino [CinemaniaHDD]
    Language                    : Spanish
    Service kind                : Complete Main
    Default                     : Yes
    Forced                      : No

    Audio #2
    ID                          : 3
    Format                      : E-AC-3
    Format/Info                 : Enhanced AC-3
    Commercial name             : Dolby Digital Plus
    Codec ID                    : A_EAC3
    Duration                    : 1 h 41 min
    Bit rate mode               : Constant
    Bit rate                    : 640 kb/s
    Channel(s)                  : 6 channels
    Channel layout              : L R C LFE Ls Rs
    Sampling rate               : 48.0 kHz
    Frame rate                  : 31.250 FPS (1536 SPF)
    Compression mode            : Lossy
    Stream size                 : 464 MiB (6%)
    Title                       : Español latino / E-AC3 [CinemaniaHDD]
    Language                    : Spanish
    Service kind                : Complete Main
    Default                     : No
    Forced                      : No

    Text #1
    ID                          : 4
    Format                      : UTF-8
    Codec ID                    : S_TEXT/UTF8
    Codec ID/Info               : UTF-8 Plain Text
    Duration                    : 1 h 40 min
    Bit rate                    : 6 b/s
    Count of elements           : 163
    Stream size                 : 5.11 KiB (0%)
    Title                       : Forzados [CinemaniaHDD]
    Language                    : Spanish
    Default                     : Yes
    Forced                      : Yes

    Text #2
    ID                          : 5
    Format                      : UTF-8
    Codec ID                    : S_TEXT/UTF8
    Codec ID/Info               : UTF-8 Plain Text
    Duration                    : 1 h 40 min
    Bit rate                    : 72 b/s
    Count of elements           : 1638
    Stream size                 : 53.7 KiB (0%)
    Title                       : Español Latino [CinemaniaHDD]
    Language                    : Spanish
    Default                     : No
    Forced                      : No

    Text #3
    ID                          : 6
    Format                      : UTF-8
    Codec ID                    : S_TEXT/UTF8
    Codec ID/Info               : UTF-8 Plain Text
    Duration                    : 1 h 40 min
    Bit rate                    : 70 b/s
    Count of elements           : 1619
    Stream size                 : 52.1 KiB (0%)
    Title                       : Inglés [CinemaniaHDD]
    Language                    : English
    Default                     : No
    Forced                      : No

    Menu
    00:00:00.000                : 1. Prime Video
    00:00:07.000                : 2. Title Sequence
    00:00:32.000                : Scene 3
    00:04:22.000                : Scene 4
    00:06:34.000                : Scene 5
    00:09:08.000                : Scene 6
    00:13:03.000                : Scene 7
    00:16:22.000                : Scene 8
    00:21:41.000                : Scene 9
    00:24:29.000                : Scene 10
    00:27:23.000                : Scene 11
    00:29:21.000                : Scene 12
    00:32:00.000                : Scene 13
    00:34:50.000                : Scene 14
    00:38:34.000                : Scene 15
    00:41:37.000                : Scene 16
    00:45:57.000                : Scene 17
    00:49:07.000                : Scene 18
    00:53:10.000                : Scene 19
    00:56:24.000                : Scene 20
    00:59:33.000                : Scene 21
    01:03:30.000                : Scene 22
    01:08:10.000                : Scene 23
    01:12:29.000                : Scene 24
    01:16:37.000                : Scene 25
    01:20:24.000                : Scene 26
    01:22:24.000                : Scene 27
    01:25:57.000                : Scene 28
    01:31:11.000                : Scene 29
    01:35:16.000                : Scene 30
    01:37:05.000                : 31. Title Sequence
    01:37:11.000                : 32. End Credits

     

  • Peso: 7.08 GiB

Sinopsis

Para estudiar moda en el tan deseado París, una joven que odia el carnaval viaja a Río de Janeiro para intentar conseguir el apoyo de la diseñadora más famosa de Brasil. Empeñada en entrar en el equipo de costura de una de las escuelas de samba más grandes, descubrirá que el Carnaval solo dura una semana, pero una historia de amor puede cambiar su vida por completo.

Ficha técnica

  • Titulo original: Um Ano Inesquecível: Verão
  • Fecha de lanzamiento: 01-06-2023 (Brazil)
  • Director: Cris D'amato
  • Género: Drama, Romance

Video trailer de la película

Enlaces de descarga

Rip de Bluray

Descargar Un Año Inolvidable – Verano (2023) AMZN WEB-DL 1080p Latino




Aportes de DPeliculasHDmega la pass es:dpeliculashdmega.org Aportes de CinemaniaHD la pass es:cinemaniahdd.com Aportes recientes:cinemaniahdd.net
Guardado en : Drama , Romance

Películas relacionadas

descargar Un Año Inolvidable – Verano (2023) AMZN WEB-DL 1080p Latino 1080p 1080p gratis, Un Año Inolvidable – Verano (2023) AMZN WEB-DL 1080p Latino 1080p mega 1 link, Un Año Inolvidable – Verano (2023) AMZN WEB-DL 1080p Latino 1080p pelicula completa, descargar Un Año Inolvidable – Verano (2023) AMZN WEB-DL 1080p Latino 1080p gratis en mega.

Un Año Inolvidable – Verano (2023) AMZN WEB-DL 1080p Latino pelicula full hd, Un Año Inolvidable – Verano (2023) AMZN WEB-DL 1080p Latino mega latino, Un Año Inolvidable – Verano (2023) AMZN WEB-DL 1080p Latino 4k latino, Un Año Inolvidable – Verano (2023) AMZN WEB-DL 1080p Latino pelicula completa, Un Año Inolvidable – Verano (2023) AMZN WEB-DL 1080p Latino descargar gratis, descargar Un Año Inolvidable – Verano (2023) AMZN WEB-DL 1080p Latino pelicula latino, Un Año Inolvidable – Verano (2023) AMZN WEB-DL 1080p Latino 1 link mega, Un Año Inolvidable – Verano (2023) AMZN WEB-DL 1080p Latino 1 link google drive, Un Año Inolvidable – Verano (2023) AMZN WEB-DL 1080p Latino hd 1080p latino.
Comentarios 0