×

¿Problemas para descargar con Mozilla, EDGE? Deshabilita la opción "Abrir vinculos en una pestaña nueva" tal como lo muestra ésta imagen.

Un Amor Extraordinario (2019) PLACEBO Full HD 1080p Latino

283 vistas

Información de Un Amor Extraordinario (2019) PLACEBO Full HD 1080p Latino

Datos de la película

  • Calidad: Full 1080p
  • Audio: Se especifica abajo de la Sinopsis
  • Subtitulos: Español Latino SRT- FORZADOS SRT
  • Resolución: 1920x1080p
  • Formato: MKV
  • Codec: H.264
  • Encoder: Melkor
  • Mediainfo: Clic para Mostrar Datos Ver
  • Un Amor Extraordinario (2019) PLACEBO Full HD 1080p Latino.mkv
    Format                      : Matroska
    Format version              : Version 4
    File size                   : 3.70 GiB
    Duration                    : 1 h 27 min
    Overall bit rate            : 6 040 kb/s
    Movie name                  : Ordinary Love (2019) CinemaniaHDD.Net
    Encoded date                : UTC 2020-11-29 09:46:06
    Writing application         : mkvmerge v51.0.0 ('I Wish') 64-bit
    Writing library             : libebml v1.4.0 + libmatroska v1.6.2
    Attachments                 : CINEMANIAHD.png

    Video
    ID                          : 1
    Format                      : AVC
    Format/Info                 : Advanced Video Codec
    Format profile              : High@L4.1
    Format settings             : CABAC / 4 Ref Frames
    Format settings, CABAC      : Yes
    Format settings, Reference  : 4 frames
    Codec ID                    : V_MPEG4/ISO/AVC
    Duration                    : 1 h 27 min
    Bit rate                    : 3 735 kb/s
    Width                       : 1 920 pixels
    Height                      : 1 080 pixels
    Display aspect ratio        : 16:9
    Frame rate mode             : Constant
    Frame rate                  : 25.000 FPS
    Color space                 : YUV
    Chroma subsampling          : 4:2:0
    Bit depth                   : 8 bits
    Scan type                   : Progressive
    Bits/(Pixel*Frame)          : 0.072
    Stream size                 : 2.29 GiB (62%)
    Title                       : Full HD1080p [CinemaniaHDD]
    Writing library             : x264 core 157 r2935 545de2f
    Encoding settings           : cabac=1 / ref=4 / deblock=1:0:0 / analyse=0x3:0x133 / me=tesa / subme=11 / psy=1 / psy_rd=1.00:0.00 / mixed_ref=1 / me_range=24 / chroma_me=1 / trellis=2 / 8x8dct=1 / cqm=0 / deadzone=21,11 / fast_pskip=0 / chroma_qp_offset=-2 / threads=24 / lookahead_threads=6 / sliced_threads=0 / nr=0 / decimate=1 / interlaced=0 / bluray_compat=0 / constrained_intra=0 / bframes=16 / b_pyramid=2 / b_adapt=2 / b_bias=0 / direct=3 / weightb=1 / open_gop=0 / weightp=2 / keyint=250 / keyint_min=25 / scenecut=40 / intra_refresh=0 / rc_lookahead=60 / rc=crf / mbtree=1 / crf=20.0 / qcomp=0.60 / qpmin=0 / qpmax=69 / qpstep=4 / vbv_maxrate=62500 / vbv_bufsize=78125 / crf_max=0.0 / nal_hrd=none / filler=0 / ip_ratio=1.40 / aq=1:1.00
    Default                     : Yes
    Forced                      : Yes
    Color range                 : Limited
    Color primaries             : BT.709
    Transfer characteristics    : BT.709
    Matrix coefficients         : BT.709

    Audio #1
    ID                          : 2
    Format                      : AC-3
    Format/Info                 : Audio Coding 3
    Commercial name             : Dolby Digital
    Codec ID                    : A_AC3
    Duration                    : 1 h 27 min
    Bit rate mode               : Constant
    Bit rate                    : 256 kb/s
    Channel(s)                  : 2 channels
    Channel layout              : L R
    Sampling rate               : 48.0 kHz
    Frame rate                  : 31.250 FPS (1536 SPF)
    Compression mode            : Lossy
    Stream size                 : 160 MiB (4%)
    Title                       : Español Latino [CinemaniaHDD]
    Language                    : Spanish
    Service kind                : Complete Main
    Default                     : Yes
    Forced                      : Yes

    Audio #2
    ID                          : 3
    Format                      : DTS XBR
    Format/Info                 : Digital Theater Systems
    Commercial name             : DTS-HD High Resolution Audio
    Codec ID                    : A_DTS
    Duration                    : 1 h 27 min
    Bit rate mode               : Constant
    Bit rate                    : 2 046 kb/s
    Channel(s)                  : 6 channels
    Channel layout              : C L R Ls Rs LFE
    Sampling rate               : 48.0 kHz
    Frame rate                  : 93.750 FPS (512 SPF)
    Bit depth                   : 24 bits
    Compression mode            : Lossy
    Stream size                 : 1.25 GiB (34%)
    Title                       : Ingles [CinemaniaHDD]
    Language                    : English
    Default                     : No
    Forced                      : No

    Text #1
    ID                          : 4
    Format                      : UTF-8
    Codec ID                    : S_TEXT/UTF8
    Codec ID/Info               : UTF-8 Plain Text
    Duration                    : 6 s 0 ms
    Bit rate                    : 29 b/s
    Count of elements           : 1
    Stream size                 : 22.0 Bytes (0%)
    Title                       : Forzados-SRT [CinemaniaHDD]
    Language                    : Spanish
    Default                     : Yes
    Forced                      : Yes

    Text #2
    ID                          : 5
    Format                      : UTF-8
    Codec ID                    : S_TEXT/UTF8
    Codec ID/Info               : UTF-8 Plain Text
    Duration                    : 1 h 17 min
    Bit rate                    : 60 b/s
    Count of elements           : 932
    Stream size                 : 34.6 KiB (0%)
    Title                       : Español-SRT [CinemaniaHDD]
    Language                    : Spanish
    Default                     : No
    Forced                      : No

    Text #3
    ID                          : 6
    Format                      : UTF-8
    Codec ID                    : S_TEXT/UTF8
    Codec ID/Info               : UTF-8 Plain Text
    Duration                    : 1 h 17 min
    Bit rate                    : 53 b/s
    Count of elements           : 949
    Stream size                 : 30.4 KiB (0%)
    Title                       : Ingles-SRT [CinemaniaHDD]
    Language                    : English
    Default                     : No
    Forced                      : No

    Menu
    00:00:00.000                : en:Chapter 01
    00:06:29.520                : en:Chapter 02
    00:11:46.480                : en:Chapter 03
    00:18:00.640                : en:Chapter 04
    00:25:35.280                : en:Chapter 05
    00:32:42.600                : en:Chapter 06
    00:38:37.760                : en:Chapter 07
    00:46:12.840                : en:Chapter 08
    00:53:09.320                : en:Chapter 09
    00:58:11.720                : en:Chapter 10
    01:04:20.200                : en:Chapter 11
    01:10:36.320                : en:Chapter 12
    01:17:02.120                : en:Chapter 13
    01:21:31.160                : en:Chapter 14

  • Peso: 3.70 GiB

Sinopsis

Descargar Un Amor Extraordinario (2019) PLACEBO Full HD 1080p Latino. Drama ambientado en irlanda sobre Joan y Tom, un veterano matrimonio que se enfrenta a un gran impacto emocional cuando a ella la diagnostican cáncer de mama.

Español Latino AC3 2.0 WebDL – Ingles DTS-HD 5.1 Bluray

Ficha técnica

Video trailer de la película

Enlaces de descarga

Rip de Bluray

Descargar Un Amor Extraordinario (2019) PLACEBO Full HD 1080p Latino




Aportes de DPeliculasHDmega la pass es:dpeliculashdmega.org Aportes de CinemaniaHD la pass es:cinemaniahdd.com

Películas relacionadas

descargar Un Amor Extraordinario (2019) PLACEBO Full HD 1080p Latino Full 1080p 1080p gratis, Un Amor Extraordinario (2019) PLACEBO Full HD 1080p Latino Full 1080p mega 1 link, Un Amor Extraordinario (2019) PLACEBO Full HD 1080p Latino Full 1080p pelicula completa, descargar Un Amor Extraordinario (2019) PLACEBO Full HD 1080p Latino Full 1080p gratis en mega.

Un Amor Extraordinario (2019) PLACEBO Full HD 1080p Latino pelicula full hd, Un Amor Extraordinario (2019) PLACEBO Full HD 1080p Latino mega latino, Un Amor Extraordinario (2019) PLACEBO Full HD 1080p Latino 4k latino, Un Amor Extraordinario (2019) PLACEBO Full HD 1080p Latino pelicula completa, Un Amor Extraordinario (2019) PLACEBO Full HD 1080p Latino descargar gratis, descargar Un Amor Extraordinario (2019) PLACEBO Full HD 1080p Latino pelicula latino, Un Amor Extraordinario (2019) PLACEBO Full HD 1080p Latino 1 link mega, Un Amor Extraordinario (2019) PLACEBO Full HD 1080p Latino 1 link google drive, Un Amor Extraordinario (2019) PLACEBO Full HD 1080p Latino hd 1080p latino.
Comentarios 0