×

¿Problemas para descargar con Mozilla, EDGE? Deshabilita la opción "Abrir vinculos en una pestaña nueva" tal como lo muestra ésta imagen.

Un Amor Atemporal (2021) AMZN WEB-DL 1080p Latino

28 vistas

Información de Un Amor Atemporal (2021) AMZN WEB-DL 1080p Latino

Datos de la película

  • Calidad: WEBDL
  • Audio: Se especifica abajo de la Sinopsis
  • Subtitulos: Español Latino SRT- FORZADOS SRT
  • Resolución: 1920x816p
  • Formato: MKV
  • Codec: H.264
  • Encoder: Melkor
  • Mediainfo: Clic para Mostrar Datos Ver
  • Un Amor Atemporal (2021) AMZN WebDL 1080p Latino.mkv
    Format                      : Matroska
    Format version              : Version 4
    File size                   : 7.95 GiB
    Duration                    : 2 h 2 min
    Overall bit rate            : 9 313 kb/s
    Movie name                  : Supereroi (2021) CinemaniaHDD.Net
    Encoded date                : UTC 2023-01-09 05:57:58
    Writing application         : mkvmerge v56.1.0 ('My Friend') 64-bit
    Writing library             : libebml v1.4.2 + libmatroska v1.6.4
    Attachments                 : CINEMANIAHD.png

    Video
    ID                          : 1
    Format                      : AVC
    Format/Info                 : Advanced Video Codec
    Format profile              : High@L4
    Format settings             : CABAC / 4 Ref Frames
    Format settings, CABAC      : Yes
    Format settings, Reference  : 4 frames
    Codec ID                    : V_MPEG4/ISO/AVC
    Duration                    : 2 h 2 min
    Bit rate mode               : Constant
    Bit rate                    : 7 390 kb/s
    Nominal bit rate            : 10 000 kb/s
    Width                       : 1 920 pixels
    Height                      : 816 pixels
    Display aspect ratio        : 2.35:1
    Frame rate mode             : Constant
    Frame rate                  : 23.976 (24000/1001) FPS
    Color space                 : YUV
    Chroma subsampling          : 4:2:0
    Bit depth                   : 8 bits
    Scan type                   : Progressive
    Bits/(Pixel*Frame)          : 0.197
    Stream size                 : 6.31 GiB (79%)
    Title                       : Web HD1080p [CinemaniaHDD]
    Default                     : Yes
    Forced                      : Yes
    Color range                 : Limited
    Color primaries             : BT.709
    Transfer characteristics    : BT.709
    Matrix coefficients         : BT.709

    Audio #1
    ID                          : 2
    Format                      : AC-3
    Format/Info                 : Audio Coding 3
    Commercial name             : Dolby Digital
    Codec ID                    : A_AC3
    Duration                    : 2 h 2 min
    Bit rate mode               : Constant
    Bit rate                    : 640 kb/s
    Channel(s)                  : 6 channels
    Channel layout              : L R C LFE Ls Rs
    Sampling rate               : 48.0 kHz
    Frame rate                  : 31.250 FPS (1536 SPF)
    Compression mode            : Lossy
    Stream size                 : 560 MiB (7%)
    Title                       : Español Latino AC3 [CinemaniaHDD]
    Language                    : Spanish
    Service kind                : Complete Main
    Default                     : Yes
    Forced                      : Yes

    Audio #2
    ID                          : 3
    Format                      : E-AC-3
    Format/Info                 : Enhanced AC-3
    Commercial name             : Dolby Digital Plus
    Codec ID                    : A_EAC3
    Duration                    : 2 h 2 min
    Bit rate mode               : Constant
    Bit rate                    : 640 kb/s
    Channel(s)                  : 6 channels
    Channel layout              : L R C LFE Ls Rs
    Sampling rate               : 48.0 kHz
    Frame rate                  : 31.250 FPS (1536 SPF)
    Compression mode            : Lossy
    Stream size                 : 560 MiB (7%)
    Title                       : Español Latino EAC3 [CinemaniaHDD]
    Language                    : Spanish
    Service kind                : Complete Main
    Default                     : No
    Forced                      : No

    Audio #3
    ID                          : 4
    Format                      : E-AC-3
    Format/Info                 : Enhanced AC-3
    Commercial name             : Dolby Digital Plus
    Codec ID                    : A_EAC3
    Duration                    : 2 h 2 min
    Bit rate mode               : Constant
    Bit rate                    : 640 kb/s
    Channel(s)                  : 6 channels
    Channel layout              : L R C LFE Ls Rs
    Sampling rate               : 48.0 kHz
    Frame rate                  : 31.250 FPS (1536 SPF)
    Compression mode            : Lossy
    Stream size                 : 560 MiB (7%)
    Title                       : Italiano [CinemaniaHDD]
    Language                    : Italian
    Service kind                : Complete Main
    Default                     : No
    Forced                      : No

    Text #1
    ID                          : 5
    Format                      : UTF-8
    Codec ID                    : S_TEXT/UTF8
    Codec ID/Info               : UTF-8 Plain Text
    Duration                    : 1 h 55 min
    Bit rate                    : 0 b/s
    Count of elements           : 25
    Stream size                 : 604 Bytes (0%)
    Title                       : Forzados-SRT [CinemaniaHDD]
    Language                    : Spanish
    Default                     : Yes
    Forced                      : Yes

    Text #2
    ID                          : 6
    Format                      : UTF-8
    Codec ID                    : S_TEXT/UTF8
    Codec ID/Info               : UTF-8 Plain Text
    Duration                    : 1 h 55 min
    Bit rate                    : 47 b/s
    Count of elements           : 1344
    Stream size                 : 40.4 KiB (0%)
    Title                       : Español-SRT [CinemaniaHDD]
    Language                    : Spanish
    Default                     : No
    Forced                      : No

    Text #3
    ID                          : 7
    Format                      : UTF-8
    Codec ID                    : S_TEXT/UTF8
    Codec ID/Info               : UTF-8 Plain Text
    Duration                    : 1 h 54 min
    Bit rate                    : 49 b/s
    Count of elements           : 1446
    Stream size                 : 41.3 KiB (0%)
    Title                       : Ingles-SRT [CinemaniaHDD]
    Language                    : English
    Default                     : No
    Forced                      : No

  • Peso: 7.95 GiB

Sinopsis

Descargar Un Amor Atemporal (2021) AMZN WEB-DL 1080p Latino. La historia de una pareja enamorada que lucha por mantener viva su relación contra el ineludible paso del tiempo, contada de manera no lineal a lo largo de diez años de sus vidas.

Español Latino EAC3 & AC3 5.1 WebDL – Italiano EAC3 5.1 WebDL

Ficha técnica

Video trailer de la película

Enlaces de descarga

Rip de Bluray

Descargar Un Amor Atemporal (2021) AMZN WEB-DL 1080p Latino




Aportes de DPeliculasHDmega la pass es:dpeliculashdmega.org Aportes de CinemaniaHD la pass es:cinemaniahdd.com
Guardado en : Comedia , Drama , Romance

Películas relacionadas

descargar Un Amor Atemporal (2021) AMZN WEB-DL 1080p Latino WEBDL 1080p gratis, Un Amor Atemporal (2021) AMZN WEB-DL 1080p Latino WEBDL mega 1 link, Un Amor Atemporal (2021) AMZN WEB-DL 1080p Latino WEBDL pelicula completa, descargar Un Amor Atemporal (2021) AMZN WEB-DL 1080p Latino WEBDL gratis en mega.

Un Amor Atemporal (2021) AMZN WEB-DL 1080p Latino pelicula full hd, Un Amor Atemporal (2021) AMZN WEB-DL 1080p Latino mega latino, Un Amor Atemporal (2021) AMZN WEB-DL 1080p Latino 4k latino, Un Amor Atemporal (2021) AMZN WEB-DL 1080p Latino pelicula completa, Un Amor Atemporal (2021) AMZN WEB-DL 1080p Latino descargar gratis, descargar Un Amor Atemporal (2021) AMZN WEB-DL 1080p Latino pelicula latino, Un Amor Atemporal (2021) AMZN WEB-DL 1080p Latino 1 link mega, Un Amor Atemporal (2021) AMZN WEB-DL 1080p Latino 1 link google drive, Un Amor Atemporal (2021) AMZN WEB-DL 1080p Latino hd 1080p latino.
Comentarios 0