×

¿Problemas para descargar con Mozilla, EDGE? Deshabilita la opción "Abrir vinculos en una pestaña nueva" tal como lo muestra ésta imagen.

Un amigo extraordinario (2019) 1080p Latino

1.328 vistas

Información de Un amigo extraordinario (2019) 1080p Latino

Datos de la película

  • Calidad: 1080p
  • Audio: Español Latino AC3 5.1 BLURAY - Ingles AC3 5.1 BLURAY
  • Subtitulos: Español Latino SRT
  • Resolución: 1920x1036
  • Formato: MKV
  • Codec: H.264
  • Encoder: cinemaniahd
  • Mediainfo: Clic para Mostrar Datos Ver
  • A Beautiful Day in the Neighborhood (2019) 1080p Latino.mkv
    Format                      : Matroska
    Format version              : Version 4
    File size                   : 3.32 GiB
    Duration                    : 1 h 48 min
    Overall bit rate            : 4 367 kb/s
    Movie name                  : A Beautiful Day in the Neighborhood (2019) 1080p Latino
    Encoded date                : UTC 2020-02-06 16:40:07
    Writing application         : mkvmerge v42.0.0 ('Overtime') 64-bit
    Writing library             : libebml v1.3.10 + libmatroska v1.5.2 / Lavf58.20.100

    Video
    ID                          : 1
    Format                      : AVC
    Format/Info                 : Advanced Video Codec
    Format profile              : High@L4.1
    Format settings             : CABAC / 4 Ref Frames
    Format settings, CABAC      : Yes
    Format settings, ReFrames   : 4 frames
    Codec ID                    : V_MPEG4/ISO/AVC
    Duration                    : 1 h 48 min
    Bit rate                    : 3 500 kb/s
    Width                       : 1 920 pixels
    Height                      : 1 036 pixels
    Display aspect ratio        : 1.85:1
    Frame rate mode             : Constant
    Frame rate                  : 23.976 (24000/1001) FPS
    Color space                 : YUV
    Chroma subsampling          : 4:2:0
    Bit depth                   : 8 bits
    Scan type                   : Progressive
    Bits/(Pixel*Frame)          : 0.073
    Stream size                 : 2.63 GiB (79%)
    Title                       : CinemaniaHDD
    Writing library             : x264 core 157 r2935 545de2f
    Encoding settings           : cabac=1 / ref=4 / deblock=1:0:0 / analyse=0x3:0x113 / me=hex / subme=8 / psy=1 / psy_rd=1.00:0.00 / mixed_ref=1 / me_range=16 / chroma_me=1 / trellis=2 / 8x8dct=1 / cqm=0 / deadzone=21,11 / fast_pskip=1 / chroma_qp_offset=-2 / threads=32 / lookahead_threads=5 / sliced_threads=0 / nr=0 / decimate=1 / interlaced=0 / bluray_compat=0 / constrained_intra=0 / bframes=3 / b_pyramid=2 / b_adapt=1 / b_bias=0 / direct=3 / weightb=1 / open_gop=0 / weightp=2 / keyint=240 / keyint_min=24 / scenecut=40 / intra_refresh=0 / rc_lookahead=50 / rc=abr / mbtree=1 / bitrate=3500 / ratetol=1.0 / qcomp=0.60 / qpmin=0 / qpmax=69 / qpstep=4 / vbv_maxrate=62500 / vbv_bufsize=78125 / nal_hrd=none / filler=0 / ip_ratio=1.40 / aq=1:1.00
    Default                     : Yes
    Forced                      : No
    Color range                 : Limited
    Color primaries             : BT.709
    Transfer characteristics    : BT.709
    Matrix coefficients         : BT.709

    Audio #1
    ID                          : 2
    Format                      : AC-3
    Format/Info                 : Audio Coding 3
    Commercial name             : Dolby Digital
    Codec ID                    : A_AC3
    Duration                    : 1 h 48 min
    Bit rate mode               : Constant
    Bit rate                    : 448 kb/s
    Channel(s)                  : 6 channels
    Channel layout              : L R C LFE Ls Rs
    Sampling rate               : 48.0 kHz
    Frame rate                  : 31.250 FPS (1536 SPF)
    Bit depth                   : 16 bits
    Compression mode            : Lossy
    Delay relative to video     : 1 ms
    Stream size                 : 348 MiB (10%)
    Title                       : Español latino [CinemaniaHDD]
    Language                    : Spanish
    Service kind                : Complete Main
    Default                     : Yes
    Forced                      : No

    Audio #2
    ID                          : 3
    Format                      : AC-3
    Format/Info                 : Audio Coding 3
    Commercial name             : Dolby Digital
    Codec ID                    : A_AC3
    Duration                    : 1 h 48 min
    Bit rate mode               : Constant
    Bit rate                    : 448 kb/s
    Channel(s)                  : 6 channels
    Channel layout              : L R C LFE Ls Rs
    Sampling rate               : 48.0 kHz
    Frame rate                  : 31.250 FPS (1536 SPF)
    Bit depth                   : 16 bits
    Compression mode            : Lossy
    Delay relative to video     : -5 ms
    Stream size                 : 348 MiB (10%)
    Title                       : Inglés [CinemaniaHDD]
    Language                    : English
    Service kind                : Complete Main
    Default                     : No
    Forced                      : No

    Text
    ID                          : 4
    Format                      : UTF-8
    Codec ID                    : S_TEXT/UTF8
    Codec ID/Info               : UTF-8 Plain Text
    Duration                    : 1 h 42 min
    Bit rate                    : 54 b/s
    Count of elements           : 1138
    Stream size                 : 40.6 KiB (0%)
    Title                       : Español latino [CinemaniaHDD]
    Language                    : Spanish
    Default                     : Yes
    Forced                      : No

    Menu
    00:00:00.000                : :Chapter 1
    00:07:00.128                : :Chapter 2
    00:14:17.231                : :Chapter 3
    00:20:55.838                : :Chapter 4
    00:30:32.748                : :Chapter 5
    00:37:31.040                : :Chapter 6
    00:45:50.581                : :Chapter 7
    00:50:13.636                : :Chapter 8
    00:57:34.451                : :Chapter 9
    01:03:19.462                : :Chapter 10
    01:07:26.751                : :Chapter 11
    01:10:36.983                : :Chapter 12
    01:14:31.133                : :Chapter 13
    01:17:33.482                : :Chapter 14
    01:28:54.621                : :Chapter 15
    01:37:27.467                : :Chapter 16

  • Peso: 3.32 GiB

Sinopsis

Biopic de Fred Rogers, creador y presentador de un conocido programa de televisión para niños en los años 60 en Norteamérica.

Ficha técnica

  • Titulo original: A Beautiful Day in the Neighborhood
  • Fecha de lanzamiento: 22-11-2019 (United States of America)
  • Director: Marielle Heller
  • Género: Drama, HD 1080p

Video trailer de la película

Enlaces de descarga

Rip de Bluray

Descargar Un amigo extraordinario (2019) 1080p Latino




Aportes de DPeliculasHDmega la pass es:dpeliculashdmega.org Aportes de CinemaniaHD la pass es:cinemaniahdd.com
Guardado en : Drama , HD 1080p

Películas relacionadas

descargar Un amigo extraordinario (2019) 1080p Latino 1080p 1080p gratis, Un amigo extraordinario (2019) 1080p Latino 1080p mega 1 link, Un amigo extraordinario (2019) 1080p Latino 1080p pelicula completa, descargar Un amigo extraordinario (2019) 1080p Latino 1080p gratis en mega.

Un amigo extraordinario (2019) 1080p Latino pelicula full hd, Un amigo extraordinario (2019) 1080p Latino mega latino, Un amigo extraordinario (2019) 1080p Latino 4k latino, Un amigo extraordinario (2019) 1080p Latino pelicula completa, Un amigo extraordinario (2019) 1080p Latino descargar gratis, descargar Un amigo extraordinario (2019) 1080p Latino pelicula latino, Un amigo extraordinario (2019) 1080p Latino 1 link mega, Un amigo extraordinario (2019) 1080p Latino 1 link google drive, Un amigo extraordinario (2019) 1080p Latino hd 1080p latino.
Comentarios 0