×

¿Problemas para descargar con Mozilla, EDGE? Deshabilita la opción "Abrir vinculos en una pestaña nueva" tal como lo muestra ésta imagen.

Un amigo abominable (2019) WEB-DL 1080p Latino

1.802 vistas

Información de Un amigo abominable (2019) WEB-DL 1080p Latino

Datos de la película

  • Calidad: WEBDL
  • Audio: Español Latino AC3 2.0 iTunes - Ingles AC3 5.1 iTunes
  • Subtitulos: Español Latino SRT- FORZADOS SRT
  • Resolución: 1920x1032
  • Formato: MKV
  • Codec: H.264
  • Encoder: cinemaniahdd
  • Mediainfo: Clic para Mostrar Datos Ver
  • Un amigo abominable (2019) WEB-DL 1080p Latino.mkv
    Format                      : Matroska
    Format version              : Version 4
    File size                   : 3.90 GiB
    Duration                    : 1 h 37 min
    Overall bit rate            : 5 748 kb/s
    Movie name                  : Un amigo abominable (2019) - CinemaniaHDD.Net
    Encoded date                : UTC 2019-12-03 17:59:00
    Writing application         : mkvmerge v38.0.0 ('The Silent Type') 64-bit
    Writing library             : libebml v1.3.9 + libmatroska v1.5.2

    Video
    ID                          : 1
    Format                      : AVC
    Format/Info                 : Advanced Video Codec
    Format profile              : High@L4
    Format settings             : CABAC / 4 Ref Frames
    Format settings, CABAC      : Yes
    Format settings, ReFrames   : 4 frames
    Codec ID                    : V_MPEG4/ISO/AVC
    Duration                    : 1 h 37 min
    Bit rate                    : 5 106 kb/s
    Width                       : 1 920 pixels
    Height                      : 1 032 pixels
    Display aspect ratio        : 1.85:1
    Frame rate mode             : Constant
    Frame rate                  : 23.976 (24000/1001) FPS
    Color space                 : YUV
    Chroma subsampling          : 4:2:0
    Bit depth                   : 8 bits
    Scan type                   : Progressive
    Bits/(Pixel*Frame)          : 0.107
    Stream size                 : 3.47 GiB (89%)
    Title                       : CinemaniaHDD
    Language                    : English
    Default                     : No
    Forced                      : No
    Color range                 : Limited
    Color primaries             : BT.709
    Transfer characteristics    : BT.709
    Matrix coefficients         : BT.709

    Audio #1
    ID                          : 2
    Format                      : AC-3
    Format/Info                 : Audio Coding 3
    Commercial name             : Dolby Digital
    Codec ID                    : A_AC3
    Duration                    : 1 h 37 min
    Bit rate mode               : Constant
    Bit rate                    : 256 kb/s
    Channel(s)                  : 2 channels
    Channel layout              : L R
    Sampling rate               : 48.0 kHz
    Frame rate                  : 31.250 FPS (1536 SPF)
    Bit depth                   : 16 bits
    Compression mode            : Lossy
    Delay relative to video     : -42 ms
    Stream size                 : 178 MiB (4%)
    Title                       : Español latino [CinemaniaHDD]
    Language                    : Spanish
    Service kind                : Complete Main
    Default                     : Yes
    Forced                      : No

    Audio #2
    ID                          : 3
    Format                      : AC-3
    Format/Info                 : Audio Coding 3
    Commercial name             : Dolby Digital
    Codec ID                    : A_AC3
    Duration                    : 1 h 37 min
    Bit rate mode               : Constant
    Bit rate                    : 384 kb/s
    Channel(s)                  : 6 channels
    Channel layout              : L R C LFE Ls Rs
    Sampling rate               : 48.0 kHz
    Frame rate                  : 31.250 FPS (1536 SPF)
    Bit depth                   : 16 bits
    Compression mode            : Lossy
    Delay relative to video     : -42 ms
    Stream size                 : 267 MiB (7%)
    Title                       : Inglés [CinemaniaHDD]
    Language                    : English
    Service kind                : Complete Main
    Default                     : No
    Forced                      : No

    Text #1
    ID                          : 4
    Format                      : UTF-8
    Codec ID                    : S_TEXT/UTF8
    Codec ID/Info               : UTF-8 Plain Text
    Duration                    : 1 h 24 min
    Bit rate                    : 0 b/s
    Count of elements           : 5
    Stream size                 : 117 Bytes (0%)
    Title                       : Forzados [CinemaniaHDD]
    Language                    : Spanish
    Default                     : Yes
    Forced                      : Yes

    Text #2
    ID                          : 5
    Format                      : UTF-8
    Codec ID                    : S_TEXT/UTF8
    Codec ID/Info               : UTF-8 Plain Text
    Duration                    : 1 h 25 min
    Bit rate                    : 43 b/s
    Count of elements           : 1077
    Stream size                 : 27.4 KiB (0%)
    Title                       : Español latino [CinemaniaHDD]
    Language                    : Spanish
    Default                     : No
    Forced                      : No

    Menu
    00:00:00.000                : en:1
    00:04:12.836                : en:2
    00:09:11.885                : en:3
    00:13:43.239                : en:4
    00:16:14.598                : en:5
    00:21:35.751                : en:6
    00:25:03.457                : en:7
    00:29:31.433                : en:8
    00:33:58.450                : en:9
    00:36:44.782                : en:10
    00:41:54.006                : en:11
    00:46:31.699                : en:12
    00:50:43.325                : en:13
    00:56:32.549                : en:14
    01:01:41.523                : en:15
    01:06:34.189                : en:16
    01:11:45.416                : en:17
    01:15:27.346                : en:18
    01:20:42.535                : en:19
    01:26:45.397                : en:20
    01:37:12.976                : en:1

     

  • Peso: 3.90 GiB

Sinopsis

Yi es una adolescente más en la enorme ciudad de Shanghai. Un día, se encuentra a un joven yeti en la azotea de su edificio. La supuestamente “abominable” criatura, que se ha escapado del laboratorio donde estaba encerrado, está siendo buscada por toda la ciudad. Junto con sus ingeniosos amigos Jin y Peng, Yi decide ayudarle a huir, le bautizan como “Everest” y los cuatro se embarcan en una épica aventura para reunir a la mítica criatura con su familia en el pico más alto del mundo.

Ficha técnica

Video trailer de la película

Enlaces de descarga

Rip de Bluray

Descargar Un amigo abominable (2019) WEB-DL 1080p Latino




Aportes de DPeliculasHDmega la pass es:dpeliculashdmega.org Aportes de CinemaniaHD la pass es:cinemaniahdd.com
Guardado en : Animación , Aventura , Comedia , Familia

Películas relacionadas

descargar Un amigo abominable (2019) WEB-DL 1080p Latino WEBDL 1080p gratis, Un amigo abominable (2019) WEB-DL 1080p Latino WEBDL mega 1 link, Un amigo abominable (2019) WEB-DL 1080p Latino WEBDL pelicula completa, descargar Un amigo abominable (2019) WEB-DL 1080p Latino WEBDL gratis en mega.

Un amigo abominable (2019) WEB-DL 1080p Latino pelicula full hd, Un amigo abominable (2019) WEB-DL 1080p Latino mega latino, Un amigo abominable (2019) WEB-DL 1080p Latino 4k latino, Un amigo abominable (2019) WEB-DL 1080p Latino pelicula completa, Un amigo abominable (2019) WEB-DL 1080p Latino descargar gratis, descargar Un amigo abominable (2019) WEB-DL 1080p Latino pelicula latino, Un amigo abominable (2019) WEB-DL 1080p Latino 1 link mega, Un amigo abominable (2019) WEB-DL 1080p Latino 1 link google drive, Un amigo abominable (2019) WEB-DL 1080p Latino hd 1080p latino.
Comentarios 0