×

¿Problemas para descargar con Mozilla, EDGE? Deshabilita la opción "Abrir vinculos en una pestaña nueva" tal como lo muestra ésta imagen.

Umma (2022) REMUX 1080p Latino

141 vistas

Información de Umma (2022) REMUX 1080p Latino

Datos de la película

  • Calidad: Full 1080p
  • Audio: Español Latino AC3 5.1 BLURAY - Ingles DTS 5.1 BLURAY
  • Subtitulos: Español Latino PGS - Ingles PGS
  • Resolución: 1920x1080p
  • Formato: MKV
  • Codec: H.264
  • Encoder: Melkor
  • Mediainfo: Clic para Mostrar Datos Ver
  • Umma (2022) REMUX 1080p Latino.mkv
    Format                      : Matroska
    Format version              : Version 4
    File size                   : 18.8 GiB
    Duration                    : 1 h 23 min
    Overall bit rate mode       : Variable
    Overall bit rate            : 32.2 Mb/s
    Movie name                  : Umma (2022) CinemaniaHDD.Net
    Encoded date                : UTC 2022-05-27 00:35:20
    Writing application         : mkvmerge v56.1.0 ('My Friend') 64-bit
    Writing library             : libebml v1.4.2 + libmatroska v1.6.4
    Attachments                 : CINEMANIAHD.png

    Video
    ID                          : 1
    ID in the original source m : 4113 (0x1011)
    Format                      : AVC
    Format/Info                 : Advanced Video Codec
    Format profile              : High@L4.1
    Format settings             : CABAC / 2 Ref Frames
    Format settings, CABAC      : Yes
    Format settings, Reference  : 2 frames
    Format settings, GOP        : M=1, N=10
    Codec ID                    : V_MPEG4/ISO/AVC
    Duration                    : 1 h 23 min
    Bit rate mode               : Variable
    Bit rate                    : 27.9 Mb/s
    Width                       : 1 920 pixels
    Height                      : 1 080 pixels
    Display aspect ratio        : 16:9
    Frame rate mode             : Constant
    Frame rate                  : 23.976 (24000/1001) FPS
    Color space                 : YUV
    Chroma subsampling          : 4:2:0
    Bit depth                   : 8 bits
    Scan type                   : Progressive
    Bits/(Pixel*Frame)          : 0.561
    Stream size                 : 16.3 GiB (87%)
    Title                       : REMUX HD1080p [CinemaniaHDD]
    Default                     : Yes
    Forced                      : Yes
    Original source medium      : Blu-ray

    Audio #1
    ID                          : 2
    ID in the original source m : 4356 (0x1104)
    Format                      : AC-3
    Format/Info                 : Audio Coding 3
    Commercial name             : Dolby Digital
    Codec ID                    : A_AC3
    Duration                    : 1 h 23 min
    Bit rate mode               : Constant
    Bit rate                    : 640 kb/s
    Channel(s)                  : 6 channels
    Channel layout              : L R C LFE Ls Rs
    Sampling rate               : 48.0 kHz
    Frame rate                  : 31.250 FPS (1536 SPF)
    Compression mode            : Lossy
    Stream size                 : 382 MiB (2%)
    Title                       : Español Latino [CinemaniaHDD]
    Language                    : Spanish
    Service kind                : Complete Main
    Default                     : Yes
    Forced                      : Yes
    Original source medium      : Blu-ray

    Audio #2
    ID                          : 3
    ID in the original source m : 4352 (0x1100)
    Format                      : DTS XLL
    Format/Info                 : Digital Theater Systems
    Commercial name             : DTS-HD Master Audio
    Codec ID                    : A_DTS
    Duration                    : 1 h 23 min
    Bit rate mode               : Variable
    Bit rate                    : 3 594 kb/s
    Channel(s)                  : 6 channels
    Channel layout              : C L R Ls Rs LFE
    Sampling rate               : 48.0 kHz
    Frame rate                  : 93.750 FPS (512 SPF)
    Bit depth                   : 24 bits
    Compression mode            : Lossless
    Stream size                 : 2.10 GiB (11%)
    Title                       : Ingles [CinemaniaHDD]
    Language                    : English
    Default                     : No
    Forced                      : No
    Original source medium      : Blu-ray

    Text #1
    ID                          : 4
    Format                      : PGS
    Muxing mode                 : zlib
    Codec ID                    : S_HDMV/PGS
    Codec ID/Info               : Picture based subtitle format used on BDs/HD-DVDs
    Duration                    : 1 h 22 min
    Bit rate                    : 4 224 b/s
    Count of elements           : 300
    Stream size                 : 2.49 MiB (0%)
    Title                       : Forzados-PGS [CinemaniaHDD]
    Language                    : Spanish
    Default                     : No
    Forced                      : No

    Text #2
    ID                          : 5
    ID in the original source m : 4618 (0x120A)
    Format                      : PGS
    Muxing mode                 : zlib
    Codec ID                    : S_HDMV/PGS
    Codec ID/Info               : Picture based subtitle format used on BDs/HD-DVDs
    Duration                    : 1 h 22 min
    Bit rate                    : 16.1 kb/s
    Count of elements           : 1252
    Stream size                 : 9.50 MiB (0%)
    Title                       : Español-PGS [CinemaniaHDD]
    Language                    : Spanish
    Default                     : No
    Forced                      : No
    Original source medium      : Blu-ray

    Text #3
    ID                          : 6
    ID in the original source m : 4609 (0x1201)
    Format                      : PGS
    Muxing mode                 : zlib
    Codec ID                    : S_HDMV/PGS
    Codec ID/Info               : Picture based subtitle format used on BDs/HD-DVDs
    Duration                    : 1 h 15 min
    Bit rate                    : 19.0 kb/s
    Count of elements           : 1306
    Stream size                 : 10.3 MiB (0%)
    Title                       : Ingles-PGS [CinemaniaHDD]
    Language                    : English
    Default                     : No
    Forced                      : No
    Original source medium      : Blu-ray

    Text #4
    ID                          : 7
    Format                      : UTF-8
    Codec ID                    : S_TEXT/UTF8
    Codec ID/Info               : UTF-8 Plain Text
    Duration                    : 1 h 16 min
    Bit rate                    : 7 b/s
    Count of elements           : 149
    Stream size                 : 4.07 KiB (0%)
    Title                       : Forzados-SRT [CinemaniaHDD]
    Language                    : Spanish
    Default                     : Yes
    Forced                      : Yes

    Text #5
    ID                          : 8
    Format                      : UTF-8
    Codec ID                    : S_TEXT/UTF8
    Codec ID/Info               : UTF-8 Plain Text
    Duration                    : 1 h 22 min
    Bit rate                    : 26 b/s
    Count of elements           : 626
    Stream size                 : 16.0 KiB (0%)
    Title                       : Español-SRT [CinemaniaHDD]
    Language                    : Spanish
    Default                     : No
    Forced                      : No

    Menu
    00:00:00.000                : Chapter 01
    00:04:54.043                : Chapter 02
    00:09:29.318                : Chapter 03
    00:13:43.656                : Chapter 04
    00:18:32.027                : Chapter 05
    00:24:25.589                : Chapter 06
    00:28:09.646                : Chapter 07
    00:34:45.750                : Chapter 08
    00:39:15.770                : Chapter 09
    00:44:29.792                : Chapter 10
    00:48:55.474                : Chapter 11
    00:53:29.164                : Chapter 12
    00:58:15.074                : Chapter 13
    01:03:07.325                : Chapter 14
    01:10:30.476                : Chapter 15
    01:15:09.463                : Chapter 16

  • Peso: 18.8 GiB

Sinopsis

Descargar Umma (2022) REMUX 1080p Latino. Amanda y su hija viven una vida tranquila en una granja estadounidense, pero cuando los restos de su madre separada llegan de Corea, Amanda se ve atormentada por el miedo de convertirse en su propia madre.

Ficha técnica

Video trailer de la película

Enlaces de descarga

Rip de Bluray

Descargar Umma (2022) REMUX 1080p Latino




Aportes de DPeliculasHDmega la pass es:dpeliculashdmega.org Aportes de CinemaniaHD la pass es:cinemaniahdd.com
Guardado en : Misterio , Remux , Terror

Películas relacionadas

  • Infiniti (2022) Primera Temporada WEB-DL 1080p Latino

    Infiniti (2022) Primera Temporada WEB-DL 1080p Latino

    2022
    Infiniti (2022) Primera Temporada WEB-DL 1080p Latino

    0h 52m 2022

    La ISS, la Estación Espacial Internacional se ha quedado en silencio. La tripulación está en peligro....

    Director: Stéphane Pannetier

    Género: Drama

    Actores: Vlad Ivanov

  • Poltergeist (1982) REMUX 1080p Latino – CMHDD

    Poltergeist (1982) REMUX 1080p Latino – CMHDD

    1982
    Poltergeist (1982) REMUX 1080p Latino – CMHDD

    1h 54m 1982

    Una familia americana de clase media se traslada a vivir e una nueva casa en un aparentemente idílico...

    Director: Tobe Hooper

    Género: Terror

    Actores: Zelda Rubinstein

  • Poltergeist (1982) REMUX 4K Latino – CMHDD

    Poltergeist (1982) REMUX 4K Latino – CMHDD

    1982
    Poltergeist (1982) REMUX 4K Latino – CMHDD

    1h 54m 1982

    Una familia americana de clase media se traslada a vivir e una nueva casa en un aparentemente idílico...

    Director: Tobe Hooper

    Género: Terror

    Actores: Zelda Rubinstein

  • El Perfumista (2022) NF WEB-DL 1080p Latino

    El Perfumista (2022) NF WEB-DL 1080p Latino

    2022
    El Perfumista (2022) NF WEB-DL 1080p Latino

    1h 36m 2022

    Descargar El Perfumista (2022) NF WEB-DL 1080p Latino. Para recuperar su sentido del olfato y el afecto...

    Director: Nils Willbrandt

    Género: Crimen

    Actores: Sólveig Arnarsdóttir

  • La familia Monster (2022) REMUX 1080p Latino

    La familia Monster (2022) REMUX 1080p Latino

    2022
    La familia Monster (2022) REMUX 1080p Latino

    1h 49m 2022

    Descargar La familia Monster (2022) REMUX 1080p Latino. Reboot de "The Munsters", que sigue las desventuras...

    Director: Rob Zombie

    Género: Comedia

    Actores: Tomas Boykin

descargar Umma (2022) REMUX 1080p Latino Full 1080p 1080p gratis, Umma (2022) REMUX 1080p Latino Full 1080p mega 1 link, Umma (2022) REMUX 1080p Latino Full 1080p pelicula completa, descargar Umma (2022) REMUX 1080p Latino Full 1080p gratis en mega.

Umma (2022) REMUX 1080p Latino pelicula full hd, Umma (2022) REMUX 1080p Latino mega latino, Umma (2022) REMUX 1080p Latino 4k latino, Umma (2022) REMUX 1080p Latino pelicula completa, Umma (2022) REMUX 1080p Latino descargar gratis, descargar Umma (2022) REMUX 1080p Latino pelicula latino, Umma (2022) REMUX 1080p Latino 1 link mega, Umma (2022) REMUX 1080p Latino 1 link google drive, Umma (2022) REMUX 1080p Latino hd 1080p latino.
Comentarios 0