×

¿Problemas para descargar con Mozilla, EDGE? Deshabilita la opción "Abrir vinculos en una pestaña nueva" tal como lo muestra ésta imagen.

Umma (2022) PLACEBO Full HD 1080p Latino

292 vistas

Información de Umma (2022) PLACEBO Full HD 1080p Latino

Datos de la película

  • Calidad: Full 1080p
  • Audio: Español Latino AC3 5.1 BLURAY - Ingles DTS 5.1 BLURAY
  • Subtitulos: Español Latino PGS - Ingles PGS
  • Resolución: 1920x1080p
  • Formato: MKV
  • Codec: H.264
  • Encoder: Melkor
  • Mediainfo: Clic para Mostrar Datos Ver
  • Umma (2022) PLACEBO 1080p Latino.mkv
    Format                      : Matroska
    Format version              : Version 4
    File size                   : 2.99 GiB
    Duration                    : 1 h 23 min
    Overall bit rate            : 5 119 kb/s
    Movie name                  : Umma (2022) CinemaniaHDD.Net
    Encoded date                : UTC 2022-05-29 19:03:39
    Writing application         : mkvmerge v56.1.0 ('My Friend') 64-bit
    Writing library             : libebml v1.4.2 + libmatroska v1.6.4
    Attachments                 : CINEMANIAHD.png

    Video
    ID                          : 1
    Format                      : AVC
    Format/Info                 : Advanced Video Codec
    Format profile              : High@L4.1
    Format settings             : CABAC / 4 Ref Frames
    Format settings, CABAC      : Yes
    Format settings, Reference  : 4 frames
    Codec ID                    : V_MPEG4/ISO/AVC
    Duration                    : 1 h 23 min
    Bit rate                    : 2 947 kb/s
    Width                       : 1 920 pixels
    Height                      : 1 080 pixels
    Display aspect ratio        : 16:9
    Frame rate mode             : Constant
    Frame rate                  : 23.976 (24000/1001) FPS
    Color space                 : YUV
    Chroma subsampling          : 4:2:0
    Bit depth                   : 8 bits
    Scan type                   : Progressive
    Bits/(Pixel*Frame)          : 0.059
    Stream size                 : 1.72 GiB (58%)
    Title                       : Full HD1080p [CinemaniaHDD]
    Writing library             : x264 core 163 r3059 b684ebe0
    Encoding settings           : cabac=1 / ref=4 / deblock=1:0:0 / analyse=0x3:0x133 / me=tesa / subme=11 / psy=1 / psy_rd=1.00:0.00 / mixed_ref=1 / me_range=24 / chroma_me=1 / trellis=2 / 8x8dct=1 / cqm=0 / deadzone=21,11 / fast_pskip=0 / chroma_qp_offset=-2 / threads=24 / lookahead_threads=6 / sliced_threads=0 / nr=0 / decimate=1 / interlaced=0 / bluray_compat=0 / constrained_intra=0 / bframes=16 / b_pyramid=2 / b_adapt=2 / b_bias=0 / direct=3 / weightb=1 / open_gop=0 / weightp=2 / keyint=240 / keyint_min=24 / scenecut=40 / intra_refresh=0 / rc_lookahead=60 / rc=crf / mbtree=1 / crf=19.0 / qcomp=0.60 / qpmin=0 / qpmax=69 / qpstep=4 / vbv_maxrate=62500 / vbv_bufsize=78125 / crf_max=0.0 / nal_hrd=none / filler=0 / ip_ratio=1.40 / aq=1:1.00
    Default                     : Yes
    Forced                      : Yes
    Color range                 : Limited
    Color primaries             : BT.709
    Transfer characteristics    : BT.709
    Matrix coefficients         : BT.709

    Audio #1
    ID                          : 2
    ID in the original source m : 4356 (0x1104)
    Format                      : AC-3
    Format/Info                 : Audio Coding 3
    Commercial name             : Dolby Digital
    Codec ID                    : A_AC3
    Duration                    : 1 h 23 min
    Bit rate mode               : Constant
    Bit rate                    : 640 kb/s
    Channel(s)                  : 6 channels
    Channel layout              : L R C LFE Ls Rs
    Sampling rate               : 48.0 kHz
    Frame rate                  : 31.250 FPS (1536 SPF)
    Compression mode            : Lossy
    Stream size                 : 382 MiB (13%)
    Title                       : Español Latino [CinemaniaHDD]
    Language                    : Spanish
    Service kind                : Complete Main
    Default                     : Yes
    Forced                      : Yes
    Original source medium      : Blu-ray

    Audio #2
    ID                          : 3
    Format                      : DTS
    Format/Info                 : Digital Theater Systems
    Codec ID                    : A_DTS
    Duration                    : 1 h 23 min
    Bit rate mode               : Constant
    Bit rate                    : 1 509 kb/s
    Channel(s)                  : 6 channels
    Channel layout              : C L R Ls Rs LFE
    Sampling rate               : 48.0 kHz
    Frame rate                  : 93.750 FPS (512 SPF)
    Bit depth                   : 24 bits
    Compression mode            : Lossy
    Stream size                 : 902 MiB (29%)
    Title                       : Ingles [CinemaniaHDD]
    Language                    : English
    Default                     : No
    Forced                      : No

    Text #1
    ID                          : 4
    Format                      : PGS
    Muxing mode                 : zlib
    Codec ID                    : S_HDMV/PGS
    Codec ID/Info               : Picture based subtitle format used on BDs/HD-DVDs
    Duration                    : 1 h 22 min
    Bit rate                    : 4 224 b/s
    Count of elements           : 300
    Stream size                 : 2.49 MiB (0%)
    Title                       : Forzados-PGS [CinemaniaHDD]
    Language                    : Spanish
    Default                     : No
    Forced                      : No

    Text #2
    ID                          : 5
    ID in the original source m : 4618 (0x120A)
    Format                      : PGS
    Muxing mode                 : zlib
    Codec ID                    : S_HDMV/PGS
    Codec ID/Info               : Picture based subtitle format used on BDs/HD-DVDs
    Duration                    : 1 h 22 min
    Bit rate                    : 16.1 kb/s
    Count of elements           : 1252
    Stream size                 : 9.50 MiB (0%)
    Title                       : Español-PGS [CinemaniaHDD]
    Language                    : Spanish
    Default                     : No
    Forced                      : No
    Original source medium      : Blu-ray

    Text #3
    ID                          : 6
    ID in the original source m : 4609 (0x1201)
    Format                      : PGS
    Muxing mode                 : zlib
    Codec ID                    : S_HDMV/PGS
    Codec ID/Info               : Picture based subtitle format used on BDs/HD-DVDs
    Duration                    : 1 h 15 min
    Bit rate                    : 19.0 kb/s
    Count of elements           : 1306
    Stream size                 : 10.3 MiB (0%)
    Title                       : Ingles-PGS [CinemaniaHDD]
    Language                    : English
    Default                     : No
    Forced                      : No
    Original source medium      : Blu-ray

    Text #4
    ID                          : 7
    Format                      : UTF-8
    Codec ID                    : S_TEXT/UTF8
    Codec ID/Info               : UTF-8 Plain Text
    Duration                    : 1 h 16 min
    Bit rate                    : 7 b/s
    Count of elements           : 149
    Stream size                 : 4.07 KiB (0%)
    Title                       : Forzados-SRT [CinemaniaHDD]
    Language                    : Spanish
    Default                     : Yes
    Forced                      : Yes

    Text #5
    ID                          : 8
    Format                      : UTF-8
    Codec ID                    : S_TEXT/UTF8
    Codec ID/Info               : UTF-8 Plain Text
    Duration                    : 1 h 22 min
    Bit rate                    : 26 b/s
    Count of elements           : 626
    Stream size                 : 16.0 KiB (0%)
    Title                       : Español-SRT [CinemaniaHDD]
    Language                    : Spanish
    Default                     : No
    Forced                      : No

    Menu
    00:00:00.000                : Chapter 01
    00:04:54.043                : Chapter 02
    00:09:29.318                : Chapter 03
    00:13:43.656                : Chapter 04
    00:18:32.027                : Chapter 05
    00:24:25.589                : Chapter 06
    00:28:09.646                : Chapter 07
    00:34:45.750                : Chapter 08
    00:39:15.770                : Chapter 09
    00:44:29.792                : Chapter 10
    00:48:55.474                : Chapter 11
    00:53:29.164                : Chapter 12
    00:58:15.074                : Chapter 13
    01:03:07.325                : Chapter 14
    01:10:30.476                : Chapter 15
    01:15:09.463                : Chapter 16

  • Peso: 2.99 GiB

Sinopsis

Descargar Umma (2022) PLACEBO Full HD 1080p Latino. Amanda y su hija viven una vida tranquila en una granja estadounidense, pero cuando los restos de su madre separada llegan de Corea, Amanda se ve atormentada por el miedo de convertirse en su propia madre.

Ficha técnica

Video trailer de la película

Enlaces de descarga

Rip de Bluray

Descargar Umma (2022) PLACEBO Full HD 1080p Latino




Aportes de DPeliculasHDmega la pass es:dpeliculashdmega.org Aportes de CinemaniaHD la pass es:cinemaniahdd.com

Películas relacionadas

  • They/Them (2022) PCOK WEB-DL 1080p Latino

    They/Them (2022) PCOK WEB-DL 1080p Latino

    2022
    They/Them (2022) PCOK WEB-DL 1080p Latino

    1h 41m 2022

    Un grupo de adolescentes LGBTQIA+ se dirigen al Campamento Whistler, un centro para adolescentes...

    Director: John Logan

    Género: Suspenso

    Actores: Theo Germaine

  • Vivo (2021) PLACEBO Full HD 1080p Latino

    Vivo (2021) PLACEBO Full HD 1080p Latino

    2021
    Vivo (2021) PLACEBO Full HD 1080p Latino

    1h 35m 2021

    Descargar Vivo (2021) PLACEBO Full HD 1080p Latino. Narra la vida de Vivo, un kinkajú («oso de la miel»...

    Director: Kirk DeMicco

    Género: Animación

    Actores: Zoe Saldana

Umma (2022) PLACEBO Full HD 1080p Latino pelicula full hd, Umma (2022) PLACEBO Full HD 1080p Latino mega latino, Umma (2022) PLACEBO Full HD 1080p Latino 4k latino, Umma (2022) PLACEBO Full HD 1080p Latino pelicula completa, Umma (2022) PLACEBO Full HD 1080p Latino descargar gratis, descargar Umma (2022) PLACEBO Full HD 1080p Latino pelicula latino, Umma (2022) PLACEBO Full HD 1080p Latino 1 link mega, Umma (2022) PLACEBO Full HD 1080p Latino 1 link google drive, Umma (2022) PLACEBO Full HD 1080p Latino hd 1080p latino.
Comentarios 0