×

¿Problemas para descargar con Mozilla, EDGE? Deshabilita la opción "Abrir vinculos en una pestaña nueva" tal como lo muestra ésta imagen.

Ultima Bala (2021) REMUX 1080p Latino

277 vistas

Información de Ultima Bala (2021) REMUX 1080p Latino

Datos de la película

  • Calidad: Full 1080p
  • Audio: Español Latino AC3 2.0 WEB-DL - Ingles DTS 5.1 BLURAY
  • Subtitulos: Español Latino SRT- FORZADOS SRT
  • Resolución: 1920x1080p
  • Formato: MKV
  • Codec: H.264
  • Encoder: Melkor
  • Mediainfo: Clic para Mostrar Datos Ver
  • Ultima Bala (2021) REMUX 1080p Latino.mkv
    Format                      : Matroska
    Format version              : Version 4
    File size                   : 18.5 GiB
    Duration                    : 1 h 36 min
    Overall bit rate mode       : Variable
    Overall bit rate            : 27.3 Mb/s
    Movie name                  : One Shot (2021) CinemaniaHDD.Net
    Encoded date                : UTC 2022-10-14 04:19:55
    Writing application         : mkvmerge v56.1.0 ('My Friend') 64-bit
    Writing library             : libebml v1.4.2 + libmatroska v1.6.4
    Attachments                 : CINEMANIAHD.png

    Video
    ID                          : 1
    Format                      : AVC
    Format/Info                 : Advanced Video Codec
    Format profile              : High@L4.1
    Format settings             : CABAC / 4 Ref Frames
    Format settings, CABAC      : Yes
    Format settings, Reference  : 4 frames
    Codec ID                    : V_MPEG4/ISO/AVC
    Duration                    : 1 h 36 min
    Bit rate mode               : Variable
    Bit rate                    : 23.3 Mb/s
    Maximum bit rate            : 32.7 Mb/s
    Width                       : 1 920 pixels
    Height                      : 1 080 pixels
    Display aspect ratio        : 16:9
    Frame rate mode             : Constant
    Frame rate                  : 23.976 (24000/1001) FPS
    Standard                    : NTSC
    Color space                 : YUV
    Chroma subsampling          : 4:2:0
    Bit depth                   : 8 bits
    Scan type                   : Progressive
    Bits/(Pixel*Frame)          : 0.468
    Stream size                 : 15.7 GiB (85%)
    Title                       : REMUX HD1080p [CinemaniaHDD]
    Default                     : Yes
    Forced                      : Yes
    Color range                 : Limited
    Color primaries             : BT.709
    Transfer characteristics    : BT.709
    Matrix coefficients         : BT.709

    Audio #1
    ID                          : 2
    Format                      : AC-3
    Format/Info                 : Audio Coding 3
    Commercial name             : Dolby Digital
    Codec ID                    : A_AC3
    Duration                    : 1 h 36 min
    Bit rate mode               : Constant
    Bit rate                    : 256 kb/s
    Channel(s)                  : 2 channels
    Channel layout              : L R
    Sampling rate               : 48.0 kHz
    Frame rate                  : 31.250 FPS (1536 SPF)
    Compression mode            : Lossy
    Stream size                 : 177 MiB (1%)
    Title                       : Español Latino [CinemaniaHDD]
    Language                    : Spanish
    Service kind                : Complete Main
    Default                     : Yes
    Forced                      : Yes

    Audio #2
    ID                          : 3
    Format                      : DTS XLL
    Format/Info                 : Digital Theater Systems
    Commercial name             : DTS-HD Master Audio
    Codec ID                    : A_DTS
    Duration                    : 1 h 36 min
    Bit rate mode               : Variable
    Bit rate                    : 3 751 kb/s
    Channel(s)                  : 6 channels
    Channel layout              : C L R Ls Rs LFE
    Sampling rate               : 48.0 kHz
    Frame rate                  : 93.750 FPS (512 SPF)
    Bit depth                   : 24 bits
    Compression mode            : Lossless
    Stream size                 : 2.54 GiB (14%)
    Title                       : Ingles [CinemaniaHDD]
    Language                    : English
    Default                     : No
    Forced                      : No

    Text #1
    ID                          : 4
    Format                      : UTF-8
    Codec ID                    : S_TEXT/UTF8
    Codec ID/Info               : UTF-8 Plain Text
    Duration                    : 3 s 0 ms
    Bit rate                    : 42 b/s
    Count of elements           : 1
    Stream size                 : 16.0 Bytes (0%)
    Title                       : Forzados-SRT [CinemaniaHDD]
    Language                    : Spanish
    Default                     : Yes
    Forced                      : Yes

    Text #2
    ID                          : 5
    Format                      : UTF-8
    Codec ID                    : S_TEXT/UTF8
    Codec ID/Info               : UTF-8 Plain Text
    Duration                    : 1 h 31 min
    Bit rate                    : 44 b/s
    Count of elements           : 1015
    Stream size                 : 30.1 KiB (0%)
    Title                       : Español-SRT [CinemaniaHDD]
    Language                    : Spanish
    Default                     : No
    Forced                      : No

    Text #3
    ID                          : 6
    Format                      : PGS
    Muxing mode                 : zlib
    Codec ID                    : S_HDMV/PGS
    Codec ID/Info               : Picture based subtitle format used on BDs/HD-DVDs
    Duration                    : 1 h 32 min
    Bit rate                    : 61.8 kb/s
    Count of elements           : 2508
    Stream size                 : 40.7 MiB (0%)
    Title                       : Ingles [CinemaniaHDD]
    Language                    : English
    Default                     : No
    Forced                      : No

    Menu
    00:00:00.000                : Chapter 01
    00:08:51.448                : Chapter 02
    00:16:17.143                : Chapter 03
    00:24:00.981                : Chapter 04
    00:32:01.336                : Chapter 05
    00:40:35.558                : Chapter 06
    00:47:34.143                : Chapter 07
    00:55:21.902                : Chapter 08
    01:05:48.027                : Chapter 09
    01:16:46.852                : Chapter 10
    01:23:59.409                : Chapter 11
    01:33:30.063                : Chapter 12

  • Peso: 18.5 GiB

Sinopsis

Descargar Ultima Bala (2021) REMUX 1080p Latino. Un escuadrón de élite de los Navy SEAL, en una misión encubierta para transportar a un prisionero fuera de una prisión insular de la CIA, queda atrapado cuando los insurgentes atacan mientras intentan rescatar al mismo prisionero.

Ficha técnica

  • Titulo original: One Shot
  • Fecha de lanzamiento: 05-11-2021 (United Kingdom)
  • Director: James Nunn
  • Género: Acción, Remux

Video trailer de la película

Enlaces de descarga

Rip de Bluray

Descargar Ultima Bala (2021) REMUX 1080p Latino




Aportes de DPeliculasHDmega la pass es:dpeliculashdmega.org Aportes de CinemaniaHD la pass es:cinemaniahdd.com Aportes recientes:cinemaniahdd.net
Guardado en : Acción , Remux

Películas relacionadas

  • Los infalibles (2024) AMZN WEB-DL 1080p Latino

    Los infalibles (2024) AMZN WEB-DL 1080p Latino

    2024
    Los infalibles (2024) AMZN WEB-DL 1080p Latino

    1h 39m 2024

    Cuando un grupo de ladrones provoca el caos en París y ridiculiza a la policía, el Ministro del Interior...

    Director: Frédéric Forestier

    Género: Acción

    Actores: Vincent Rottiers

  • Ghostbusters: El Legado (2021) REMUX 1080p Latino

    Ghostbusters: El Legado (2021) REMUX 1080p Latino

    2021
    Ghostbusters: El Legado (2021) REMUX 1080p Latino

    2h 4m 2021

    Descargar Ghostbusters: El Legado (2021) REMUX 1080p Latino. Una madre soltera y sus dos hijos se van...

    Director: Jason Reitman

    Género: Aventura

    Actores: Tracy Letts

  • El Ministerio de la Guerra (2024) HD 1080p Latino

    El Ministerio de la Guerra (2024) HD 1080p Latino

    2024
    El Ministerio de la Guerra (2024) HD 1080p Latino

    2h 0m 2024

    Descargar El Ministerio de la Guerra (2024) HD 1080p Latino.  El ejército británico recluta a un pequeño...

    Director: Guy Ritchie

    Género: Acción

    Actores: Til Schweiger

descargar Ultima Bala (2021) REMUX 1080p Latino Full 1080p 1080p gratis, Ultima Bala (2021) REMUX 1080p Latino Full 1080p mega 1 link, Ultima Bala (2021) REMUX 1080p Latino Full 1080p pelicula completa, descargar Ultima Bala (2021) REMUX 1080p Latino Full 1080p gratis en mega.

Ultima Bala (2021) REMUX 1080p Latino pelicula full hd, Ultima Bala (2021) REMUX 1080p Latino mega latino, Ultima Bala (2021) REMUX 1080p Latino 4k latino, Ultima Bala (2021) REMUX 1080p Latino pelicula completa, Ultima Bala (2021) REMUX 1080p Latino descargar gratis, descargar Ultima Bala (2021) REMUX 1080p Latino pelicula latino, Ultima Bala (2021) REMUX 1080p Latino 1 link mega, Ultima Bala (2021) REMUX 1080p Latino 1 link google drive, Ultima Bala (2021) REMUX 1080p Latino hd 1080p latino.
Comentarios 0