U311: Cherkasy (2019) WebDL 1080p Latino

64 vistas
1 estrella2 estrellas3 estrellas4 estrellas5 estrellas (Ninguna valoración todavía)
Cargando...

Información de U311: Cherkasy (2019) WebDL 1080p Latino

Datos de la película

  • Calidad: WEBDL
  • Audio: Se especifica abajo de la Sinopsis
  • Subtitulos: Español Latino SRT- FORZADOS SRT
  • Resolución: 1920x1080p
  • Formato: MKV
  • Codec: H.264
  • Encoder: CinemaniaHD
  • Mediainfo: Clic para Mostrar Datos Ver
  • Cherkasy (2019) WebDL 1080p Latino.mkv
    Format                      : Matroska
    Format version              : Version 4
    File size                   : 7.93 GiB
    Duration                    : 1 h 30 min
    Overall bit rate            : 12.6 Mb/s
    Movie name                  : U311: Cherkasy (2019) CinemaniaHDD.Net
    Encoded date                : UTC 2021-06-01 04:54:14
    Writing application         : mkvmerge v56.1.0 ('My Friend') 64-bit
    Writing library             : libebml v1.4.2 + libmatroska v1.6.4
    Attachments                 : CINEMANIAHD.png

    Video
    ID                          : 1
    Format                      : AVC
    Format/Info                 : Advanced Video Codec
    Format profile              : High@L4.2
    Format settings             : CABAC / 2 Ref Frames
    Format settings, CABAC      : Yes
    Format settings, Reference  : 2 frames
    Codec ID                    : V_MPEG4/ISO/AVC
    Duration                    : 1 h 30 min
    Bit rate mode               : Constant
    Bit rate                    : 12.0 Mb/s
    Width                       : 1 920 pixels
    Height                      : 1 080 pixels
    Display aspect ratio        : 16:9
    Frame rate mode             : Constant
    Frame rate                  : 25.000 FPS
    Color space                 : YUV
    Chroma subsampling          : 4:2:0
    Bit depth                   : 8 bits
    Scan type                   : Progressive
    Bits/(Pixel*Frame)          : 0.231
    Stream size                 : 7.48 GiB (94%)
    Title                       : WEB HD1080p [CinemaniaHDD]
    Language                    : Ukrainian
    Default                     : Yes
    Forced                      : Yes

    Audio #1
    ID                          : 2
    Format                      : AC-3
    Format/Info                 : Audio Coding 3
    Commercial name             : Dolby Digital
    Codec ID                    : A_AC3
    Duration                    : 1 h 30 min
    Bit rate mode               : Constant
    Bit rate                    : 256 kb/s
    Channel(s)                  : 2 channels
    Channel layout              : L R
    Sampling rate               : 48.0 kHz
    Frame rate                  : 31.250 FPS (1536 SPF)
    Compression mode            : Lossy
    Delay relative to video     : -120 ms
    Stream size                 : 165 MiB (2%)
    Title                       : Español Latino [CinemaniaHDD]
    Language                    : Spanish
    Service kind                : Complete Main
    Default                     : Yes
    Forced                      : Yes

    Audio #2
    ID                          : 3
    Format                      : AC-3
    Format/Info                 : Audio Coding 3
    Commercial name             : Dolby Digital
    Codec ID                    : A_AC3
    Duration                    : 1 h 30 min
    Bit rate mode               : Constant
    Bit rate                    : 448 kb/s
    Channel(s)                  : 6 channels
    Channel layout              : L R C LFE Ls Rs
    Sampling rate               : 48.0 kHz
    Frame rate                  : 31.250 FPS (1536 SPF)
    Compression mode            : Lossy
    Delay relative to video     : -120 ms
    Stream size                 : 289 MiB (4%)
    Title                       : Ucraniano [CinemaniaHDD]
    Language                    : Ukrainian
    Service kind                : Complete Main
    Default                     : No
    Forced                      : No

    Text #1
    ID                          : 4
    Format                      : UTF-8
    Codec ID                    : S_TEXT/UTF8
    Codec ID/Info               : UTF-8 Plain Text
    Duration                    : 25 min 24 s
    Bit rate                    : 0 b/s
    Count of elements           : 6
    Stream size                 : 186 Bytes (0%)
    Title                       : Forzados-SRT [CinemaniaHDD]
    Language                    : Spanish
    Default                     : Yes
    Forced                      : Yes

    Text #2
    ID                          : 5
    Format                      : UTF-8
    Codec ID                    : S_TEXT/UTF8
    Codec ID/Info               : UTF-8 Plain Text
    Duration                    : 1 h 24 min
    Bit rate                    : 41 b/s
    Count of elements           : 862
    Stream size                 : 25.6 KiB (0%)
    Title                       : Español-SRT [CinemaniaHDD]
    Language                    : Spanish
    Default                     : No
    Forced                      : No

  • Peso: 7.93 GiB

Sinopsis

Descargar U311: Cherkasy (2019) WebDL 1080p Latino. La tripulación del dragaminas U311 «Cherkasy» de la Marina de Guerra ucraniana se resiste a la incautación del buque por el ejército ruso en Crimea en 2014.

Español latino AC3 2.0 – Ucraniano AC3 5.1

Ficha técnica

  • Titulo original: Черкаси
  • Fecha de lanzamiento: 27-02-2020 (Ukraine)
  • Director: Timur Yashchenko
  • Género: Acción, Bélica, Drama
  • Puntuación: 0.0 0 votos
  • Duración:
    1h 42m

Video trailer de la película

Enlaces de descarga

Rip de Bluray

Descargar U311: Cherkasy (2019) WebDL 1080p Latino




Aportes de DPeliculasHDmega la pass es:dpeliculashdmega.org Aportes de CinemaniaHD la pass es:cinemaniahdd.com
Guardado en : Acción , Bélica , Drama

Películas relacionadas

U311: Cherkasy (2019) WebDL 1080p Latino pelicula full hd, U311: Cherkasy (2019) WebDL 1080p Latino mega latino, U311: Cherkasy (2019) WebDL 1080p Latino 4k latino, U311: Cherkasy (2019) WebDL 1080p Latino pelicula completa, U311: Cherkasy (2019) WebDL 1080p Latino descargar gratis, descargar U311: Cherkasy (2019) WebDL 1080p Latino pelicula latino, U311: Cherkasy (2019) WebDL 1080p Latino 1 link mega, U311: Cherkasy (2019) WebDL 1080p Latino 1 link google drive, U311: Cherkasy (2019) WebDL 1080p Latino hd 1080p latino.
Comentarios 0