×

¿Problemas para descargar con Mozilla, EDGE? Deshabilita la opción "Abrir vinculos en una pestaña nueva" tal como lo muestra ésta imagen.

U.S. Marshals (1998) HD 1080p Latino – CMHDD

348 vistas

Información de U.S. Marshals (1998) HD 1080p Latino – CMHDD

Datos de la película

  • Calidad: 1080p
  • Audio: Español Latino AC3 2.0 BLURAY - Ingles AC3 5.1 BLURAY
  • Subtitulos: Español Latino SRT
  • Resolución: 1920x1080p
  • Formato: MKV
  • Codec: H.264
  • Encoder: Dracarys
  • Mediainfo: Clic para Mostrar Datos Ver
  • Format                      : Matroska
    Format version              : Version 4
    File size                   : 3.92 GiB
    Duration                    : 2 h 11 min
    Overall bit rate            : 4 281 kb/s
    Movie name                  : U.S. Marshals (1998) HD 1080p Latino - CMHDD
    Encoded date                : UTC 2020-07-03 00:09:36
    Writing application         : mkvmerge v46.0.0 ('No Deeper Escape') 64-bit
    Writing library             : libebml v1.3.10 + libmatroska v1.5.2

    Video
    ID                          : 1
    Format                      : AVC
    Format/Info                 : Advanced Video Codec
    Format profile              : High@L4.1
    Format settings             : CABAC / 4 Ref Frames
    Format settings, CABAC      : Yes
    Format settings, Reference  : 4 frames
    Codec ID                    : V_MPEG4/ISO/AVC
    Duration                    : 2 h 11 min
    Bit rate                    : 3 500 kb/s
    Width                       : 1 920 pixels
    Height                      : 1 080 pixels
    Display aspect ratio        : 16:9
    Frame rate mode             : Constant
    Frame rate                  : 23.976 (24000/1001) FPS
    Color space                 : YUV
    Chroma subsampling          : 4:2:0
    Bit depth                   : 8 bits
    Scan type                   : Progressive
    Bits/(Pixel*Frame)          : 0.070
    Stream size                 : 3.16 GiB (81%)
    Writing library             : x264 core 157 r2935 545de2f
    Encoding settings           : cabac=1 / ref=4 / deblock=1:0:0 / analyse=0x3:0x113 / me=hex / subme=8 / psy=1 / psy_rd=1.00:0.00 / mixed_ref=1 / me_range=16 / chroma_me=1 / trellis=2 / 8x8dct=1 / cqm=0 / deadzone=21,11 / fast_pskip=1 / chroma_qp_offset=-2 / threads=24 / lookahead_threads=4 / sliced_threads=0 / nr=0 / decimate=1 / interlaced=0 / bluray_compat=0 / constrained_intra=0 / bframes=3 / b_pyramid=2 / b_adapt=1 / b_bias=0 / direct=3 / weightb=1 / open_gop=0 / weightp=2 / keyint=240 / keyint_min=24 / scenecut=40 / intra_refresh=0 / rc_lookahead=50 / rc=abr / mbtree=1 / bitrate=3500 / ratetol=1.0 / qcomp=0.60 / qpmin=0 / qpmax=69 / qpstep=4 / vbv_maxrate=62500 / vbv_bufsize=78125 / nal_hrd=none / filler=0 / ip_ratio=1.40 / aq=1:1.00
    Default                     : Yes
    Forced                      : No
    Color range                 : Limited
    Color primaries             : BT.709
    Transfer characteristics    : BT.709
    Matrix coefficients         : BT.709

    Audio #1
    ID                          : 2
    Format                      : AC-3
    Format/Info                 : Audio Coding 3
    Commercial name             : Dolby Digital
    Codec ID                    : A_AC3
    Duration                    : 2 h 11 min
    Bit rate mode               : Constant
    Bit rate                    : 192 kb/s
    Channel(s)                  : 2 channels
    Channel layout              : L R
    Sampling rate               : 48.0 kHz
    Frame rate                  : 31.250 FPS (1536 SPF)
    Compression mode            : Lossy
    Stream size                 : 180 MiB (4%)
    Language                    : Spanish
    Service kind                : Complete Main
    Default                     : Yes
    Forced                      : No

    Audio #2
    ID                          : 3
    Format                      : AC-3
    Format/Info                 : Audio Coding 3
    Commercial name             : Dolby Digital
    Codec ID                    : A_AC3
    Duration                    : 2 h 11 min
    Bit rate mode               : Constant
    Bit rate                    : 640 kb/s
    Channel(s)                  : 6 channels
    Channel layout              : L R C LFE Ls Rs
    Sampling rate               : 48.0 kHz
    Frame rate                  : 31.250 FPS (1536 SPF)
    Compression mode            : Lossy
    Delay relative to video     : -5 ms
    Stream size                 : 600 MiB (15%)
    Language                    : English
    Service kind                : Complete Main
    Default                     : No
    Forced                      : No

    Text
    ID                          : 4
    Format                      : UTF-8
    Codec ID                    : S_TEXT/UTF8
    Codec ID/Info               : UTF-8 Plain Text
    Duration                    : 2 h 9 min
    Bit rate                    : 44 b/s
    Count of elements           : 1306
    Stream size                 : 41.8 KiB (0%)
    Language                    : Spanish
    Default                     : No
    Forced                      : No

    Menu
    00:00:00.000                : :Chapter 1
    00:01:35.095                : :Chapter 2
    00:03:37.426                : :Chapter 3
    00:07:00.837                : :Chapter 4
    00:09:51.591                : :Chapter 5
    00:11:35.570                : :Chapter 6
    00:13:20.091                : :Chapter 7
    00:15:37.770                : :Chapter 8
    00:18:45.499                : :Chapter 9
    00:21:42.802                : :Chapter 10
    00:23:38.667                : :Chapter 11
    00:27:23.559                : :Chapter 12
    00:31:07.866                : :Chapter 13
    00:35:55.528                : :Chapter 14
    00:40:11.200                : :Chapter 15
    00:42:45.021                : :Chapter 16
    00:45:10.666                : :Chapter 17
    00:49:35.347                : :Chapter 18
    00:52:05.664                : :Chapter 19
    00:55:05.969                : :Chapter 20
    00:58:24.418                : :Chapter 21
    01:02:18.693                : :Chapter 22
    01:05:19.165                : :Chapter 23
    01:10:31.352                : :Chapter 24
    01:13:35.620                : :Chapter 25
    01:16:48.521                : :Chapter 26
    01:22:58.932                : :Chapter 27
    01:25:53.940                : :Chapter 28
    01:29:53.263                : :Chapter 29
    01:32:18.241                : :Chapter 30
    01:34:52.645                : :Chapter 31
    01:38:04.003                : :Chapter 32
    01:40:35.780                : :Chapter 33
    01:42:40.446                : :Chapter 34
    01:44:20.755                : :Chapter 35
    01:49:26.143                : :Chapter 36
    01:54:40.499                : :Chapter 37
    01:57:28.166                : :Chapter 38
    02:01:14.517                : :Chapter 39
    02:03:48.296                : :Chapter 40

  • Peso: 3.92 GiB

Sinopsis

Mark Sheridan, acusado del asesinato de dos agentes secretos, es arrestado y trasladado en avión a una penitenciaría. Durante el viaje, debido a una revuelta, el avión sufre un accidente que le permite escapar. Comienza entonces una implacable persecución por parte del agente federal Sam Gerard, que hace años vivió una experiencia similar persiguiendo al doctor Kimble, el famoso fugitivo.

Ficha técnica

Video trailer de la película

Enlaces de descarga

Rip de Bluray

Descargar U.S. Marshals (1998) HD 1080p Latino – CMHDD




Aportes de DPeliculasHDmega la pass es:dpeliculashdmega.org Aportes de CinemaniaHD la pass es:cinemaniahdd.com
Guardado en : Acción , Crimen , HD 1080p , Suspenso

Películas relacionadas

descargar U.S. Marshals (1998) HD 1080p Latino – CMHDD 1080p 1080p gratis, U.S. Marshals (1998) HD 1080p Latino – CMHDD 1080p mega 1 link, U.S. Marshals (1998) HD 1080p Latino – CMHDD 1080p pelicula completa, descargar U.S. Marshals (1998) HD 1080p Latino – CMHDD 1080p gratis en mega.

U.S. Marshals (1998) HD 1080p Latino – CMHDD pelicula full hd, U.S. Marshals (1998) HD 1080p Latino – CMHDD mega latino, U.S. Marshals (1998) HD 1080p Latino – CMHDD 4k latino, U.S. Marshals (1998) HD 1080p Latino – CMHDD pelicula completa, U.S. Marshals (1998) HD 1080p Latino – CMHDD descargar gratis, descargar U.S. Marshals (1998) HD 1080p Latino – CMHDD pelicula latino, U.S. Marshals (1998) HD 1080p Latino – CMHDD 1 link mega, U.S. Marshals (1998) HD 1080p Latino – CMHDD 1 link google drive, U.S. Marshals (1998) HD 1080p Latino – CMHDD hd 1080p latino.
Comentarios 0