×

¿Problemas para descargar con Mozilla, EDGE? Deshabilita la opción "Abrir vinculos en una pestaña nueva" tal como lo muestra ésta imagen.

Amor a segunda vista (2002) REMUX 1080p Latino

340 vistas

Información de Amor a segunda vista (2002) REMUX 1080p Latino

Datos de la película

  • Calidad: Full 1080p
  • Audio: Español Latino AC3 2.0 BLURAY - Ingles DTS 5.1 BLURAY
  • Subtitulos: Español Latino PGS - Ingles PGS
  • Resolución: 1920x1080p
  • Formato: MKV
  • Codec: H.264
  • Encoder: CinefiloCool
  • Mediainfo: Clic para Mostrar Datos Ver
  • Amor A Segunda Vista (2002) REMUX 1080p Latino-CMHDD.mkv
    Format                      : Matroska
    Format version              : Version 4
    File size                   : 16.0 GiB
    Duration                    : 1 h 41 min
    Overall bit rate mode       : Variable
    Overall bit rate            : 22.7 Mb/s
    Movie name                  : Two Weeks Notice (2002) CinemaniaHDD.Net
    Encoded date                : UTC 2022-02-01 09:27:15
    Writing application         : mkvmerge v56.1.0 ('My Friend') 64-bit
    Writing library             : libebml v1.4.2 + libmatroska v1.6.4
    Attachments                 : CINEMANIAHD.png

    Video
    ID                          : 1
    ID in the original source m : 4113 (0x1011)
    Format                      : AVC
    Format/Info                 : Advanced Video Codec
    Format profile              : High@L4
    Format settings             : CABAC / 2 Ref Frames
    Format settings, CABAC      : Yes
    Format settings, Reference  : 2 frames
    Codec ID                    : V_MPEG4/ISO/AVC
    Duration                    : 1 h 41 min
    Bit rate mode               : Variable
    Bit rate                    : 18.9 Mb/s
    Width                       : 1 920 pixels
    Height                      : 1 080 pixels
    Display aspect ratio        : 16:9
    Frame rate mode             : Constant
    Frame rate                  : 23.976 (24000/1001) FPS
    Color space                 : YUV
    Chroma subsampling          : 4:2:0
    Bit depth                   : 8 bits
    Scan type                   : Progressive
    Bits/(Pixel*Frame)          : 0.379
    Stream size                 : 13.3 GiB (83%)
    Title                       : REMUX HD1080p [CinemaniaHDD]
    Default                     : Yes
    Forced                      : Yes
    Original source medium      : Blu-ray

    Audio #1
    ID                          : 2
    ID in the original source m : 4355 (0x1103)
    Format                      : AC-3
    Format/Info                 : Audio Coding 3
    Commercial name             : Dolby Digital
    Format settings             : Dolby Surround
    Codec ID                    : A_AC3
    Duration                    : 1 h 41 min
    Bit rate mode               : Constant
    Bit rate                    : 192 kb/s
    Channel(s)                  : 2 channels
    Channel layout              : L R
    Sampling rate               : 48.0 kHz
    Frame rate                  : 31.250 FPS (1536 SPF)
    Compression mode            : Lossy
    Stream size                 : 139 MiB (1%)
    Title                       : Español Latino [CinemaniaHDD]
    Language                    : Spanish
    Service kind                : Complete Main
    Default                     : Yes
    Forced                      : Yes
    Original source medium      : Blu-ray

    Audio #2
    ID                          : 3
    ID in the original source m : 4352 (0x1100)
    Format                      : DTS XLL
    Format/Info                 : Digital Theater Systems
    Commercial name             : DTS-HD Master Audio
    Codec ID                    : A_DTS
    Duration                    : 1 h 41 min
    Bit rate mode               : Variable
    Bit rate                    : 3 590 kb/s
    Channel(s)                  : 6 channels
    Channel layout              : C L R Ls Rs LFE
    Sampling rate               : 48.0 kHz
    Frame rate                  : 93.750 FPS (512 SPF)
    Bit depth                   : 24 bits
    Compression mode            : Lossless
    Stream size                 : 2.54 GiB (16%)
    Title                       : Ingles [CinemaniaHDD]
    Language                    : English
    Default                     : No
    Forced                      : No
    Original source medium      : Blu-ray

    Text #1
    ID                          : 4
    ID in the original source m : 4612 (0x1204)
    Format                      : PGS
    Muxing mode                 : zlib
    Codec ID                    : S_HDMV/PGS
    Codec ID/Info               : Picture based subtitle format used on BDs/HD-DVDs
    Duration                    : 1 h 40 min
    Bit rate                    : 38.6 kb/s
    Count of elements           : 2626
    Stream size                 : 27.6 MiB (0%)
    Title                       : Español-PGS [CinemaniaHDD]
    Language                    : Spanish
    Default                     : No
    Forced                      : No
    Original source medium      : Blu-ray

    Text #2
    ID                          : 5
    ID in the original source m : 4608 (0x1200)
    Format                      : PGS
    Muxing mode                 : zlib
    Codec ID                    : S_HDMV/PGS
    Codec ID/Info               : Picture based subtitle format used on BDs/HD-DVDs
    Duration                    : 1 h 38 min
    Bit rate                    : 47.1 kb/s
    Count of elements           : 2890
    Stream size                 : 33.3 MiB (0%)
    Title                       : Ingles-PGS [CinemaniaHDD]
    Language                    : English
    Default                     : No
    Forced                      : No
    Original source medium      : Blu-ray

    Text #3
    ID                          : 6
    Format                      : UTF-8
    Codec ID                    : S_TEXT/UTF8
    Codec ID/Info               : UTF-8 Plain Text
    Duration                    : 1 h 39 min
    Bit rate                    : 0 b/s
    Count of elements           : 11
    Stream size                 : 330 Bytes (0%)
    Title                       : Forzados-SRT [CinemaniaHDD]
    Language                    : Spanish
    Default                     : Yes
    Forced                      : Yes

    Text #4
    ID                          : 7
    Format                      : UTF-8
    Codec ID                    : S_TEXT/UTF8
    Codec ID/Info               : UTF-8 Plain Text
    Duration                    : 1 h 39 min
    Bit rate                    : 67 b/s
    Count of elements           : 1326
    Stream size                 : 49.7 KiB (0%)
    Title                       : Español-SRT [CinemaniaHDD]
    Language                    : Spanish
    Default                     : No
    Forced                      : No

    Menu
    00:00:00.000                : Chapter 01
    00:02:21.558                : Chapter 02
    00:04:31.396                : Chapter 03
    00:06:44.862                : Chapter 04
    00:11:11.921                : Chapter 05
    00:15:11.535                : Chapter 06
    00:20:27.100                : Chapter 07
    00:23:39.751                : Chapter 08
    00:28:48.768                : Chapter 09
    00:31:41.232                : Chapter 10
    00:35:41.305                : Chapter 11
    00:39:27.865                : Chapter 12
    00:41:01.500                : Chapter 13
    00:43:32.318                : Chapter 14
    00:49:05.525                : Chapter 15
    00:53:39.299                : Chapter 16
    00:55:57.896                : Chapter 17
    01:00:18.906                : Chapter 18
    01:04:41.794                : Chapter 19
    01:08:31.190                : Chapter 20
    01:14:14.992                : Chapter 21
    01:15:49.211                : Chapter 22
    01:19:52.120                : Chapter 23
    01:23:12.946                : Chapter 24
    01:25:17.112                : Chapter 25
    01:28:09.325                : Chapter 26
    01:32:33.256                : Chapter 27
    01:36:14.977                : Chapter 28

  • Peso: 16.0 GiB

Sinopsis

Descargar Amor a segunda vista (2002) REMUX 1080p Latino. El millonario George Wade no es capaz de hacer nada sin su asesora legal, Lucy Kelson. Las tareas de esta inteligente abogada son tantas que le han costado una úlcera y, además, no tiene tiempo ni para dormir. Lo que más la desespera es que el encantador George la trata casi como a una niñera. Tras cinco años a su servicio, Lucy ha decidido abandonar el trabajo. Aunque George trata de impedírselo, finalmente la deja ir con una condición: que encuentre una sustituta.

Disponible Solo Para VIP!!!

Ficha técnica

  • Titulo original: Two Weeks Notice
  • Fecha de lanzamiento: 19-12-2002 (Australia, United States of America)
  • Director: Marc Lawrence
  • Género: Comedia, Remux, Romance

Video trailer de la película

Enlaces de descarga

Rip de Bluray

Descargar Amor a segunda vista (2002) REMUX 1080p Latino


Aportes de DPeliculasHDmega la pass es:dpeliculashdmega.org Aportes de CinemaniaHD la pass es:cinemaniahdd.com
Guardado en : Comedia , Remux , Romance

Películas relacionadas

descargar Amor a segunda vista (2002) REMUX 1080p Latino Full 1080p 1080p gratis, Amor a segunda vista (2002) REMUX 1080p Latino Full 1080p mega 1 link, Amor a segunda vista (2002) REMUX 1080p Latino Full 1080p pelicula completa, descargar Amor a segunda vista (2002) REMUX 1080p Latino Full 1080p gratis en mega.

Amor a segunda vista (2002) REMUX 1080p Latino pelicula full hd, Amor a segunda vista (2002) REMUX 1080p Latino mega latino, Amor a segunda vista (2002) REMUX 1080p Latino 4k latino, Amor a segunda vista (2002) REMUX 1080p Latino pelicula completa, Amor a segunda vista (2002) REMUX 1080p Latino descargar gratis, descargar Amor a segunda vista (2002) REMUX 1080p Latino pelicula latino, Amor a segunda vista (2002) REMUX 1080p Latino 1 link mega, Amor a segunda vista (2002) REMUX 1080p Latino 1 link google drive, Amor a segunda vista (2002) REMUX 1080p Latino hd 1080p latino.
Comentarios 0