×

¿Problemas para descargar con Mozilla, EDGE? Deshabilita la opción "Abrir vinculos en una pestaña nueva" tal como lo muestra ésta imagen.

Twist (2021) WEB-DL 1080p Latino

366 vistas

Información de Twist (2021) WEB-DL 1080p Latino

Datos de la película

  • Calidad: WEBDL
  • Audio: Español Latino AC3 2.0 WEB-DL - Ingles AC3 5.1 WEB-DL
  • Subtitulos: Español Latino SRT - Ingles SRT
  • Resolución: 1920x800
  • Formato: MKV
  • Codec: H.264
  • Encoder: cinemaniahdd
  • Mediainfo: Clic para Mostrar Datos Ver
  • Twist (2021) WEB-DL 1080p Latino [CNMNHDD].mkv
    Format                      : Matroska
    Format version              : Version 4
    File size                   : 3.39 GiB
    Duration                    : 1 h 31 min
    Overall bit rate            : 5 282 kb/s
    Movie name                  : Twist (2021) - CinemaniaHDD.Net
    Encoded date                : UTC 2021-04-02 21:33:39
    Writing application         : mkvmerge v51.0.0 ('I Wish') 64-bit
    Writing library             : libebml v1.4.0 + libmatroska v1.6.2

    Video
    ID                          : 1
    Format                      : AVC
    Format/Info                 : Advanced Video Codec
    Format profile              : High@L4
    Format settings             : CABAC / 5 Ref Frames
    Format settings, CABAC      : Yes
    Format settings, Reference  : 5 frames
    Codec ID                    : V_MPEG4/ISO/AVC
    Duration                    : 1 h 31 min
    Bit rate                    : 4 640 kb/s
    Width                       : 1 920 pixels
    Height                      : 802 pixels
    Display aspect ratio        : 2.40:1
    Frame rate mode             : Constant
    Frame rate                  : 24.000 FPS
    Color space                 : YUV
    Chroma subsampling          : 4:2:0
    Bit depth                   : 8 bits
    Scan type                   : Progressive
    Bits/(Pixel*Frame)          : 0.126
    Stream size                 : 2.98 GiB (88%)
    Title                       : CinemaniaHDD
    Language                    : English
    Default                     : Yes
    Forced                      : No
    Color range                 : Limited
    Color primaries             : BT.709
    Transfer characteristics    : BT.709
    Matrix coefficients         : BT.709

    Audio #1
    ID                          : 2
    Format                      : AC-3
    Format/Info                 : Audio Coding 3
    Commercial name             : Dolby Digital
    Codec ID                    : A_AC3
    Duration                    : 1 h 31 min
    Bit rate mode               : Constant
    Bit rate                    : 256 kb/s
    Channel(s)                  : 2 channels
    Channel layout              : L R
    Sampling rate               : 48.0 kHz
    Frame rate                  : 31.250 FPS (1536 SPF)
    Compression mode            : Lossy
    Stream size                 : 168 MiB (5%)
    Title                       : Español latino [CinemaniaHDD]
    Language                    : Spanish
    Service kind                : Complete Main
    Default                     : Yes
    Forced                      : No

    Audio #2
    ID                          : 3
    Format                      : AC-3
    Format/Info                 : Audio Coding 3
    Commercial name             : Dolby Digital
    Codec ID                    : A_AC3
    Duration                    : 1 h 31 min
    Bit rate mode               : Constant
    Bit rate                    : 384 kb/s
    Channel(s)                  : 6 channels
    Channel layout              : L R C LFE Ls Rs
    Sampling rate               : 48.0 kHz
    Frame rate                  : 31.250 FPS (1536 SPF)
    Compression mode            : Lossy
    Stream size                 : 253 MiB (7%)
    Title                       : Ucraniano [CinemaniaHDD]
    Language                    : Ukrainian
    Service kind                : Complete Main
    Default                     : No
    Forced                      : No

    Text #1
    ID                          : 4
    Format                      : UTF-8
    Codec ID                    : S_TEXT/UTF8
    Codec ID/Info               : UTF-8 Plain Text
    Duration                    : 1 h 19 min
    Bit rate                    : 0 b/s
    Count of elements           : 9
    Stream size                 : 212 Bytes (0%)
    Title                       : Forzados [CinemaniaHDD]
    Language                    : Spanish
    Default                     : Yes
    Forced                      : Yes

    Text #2
    ID                          : 5
    Format                      : UTF-8
    Codec ID                    : S_TEXT/UTF8
    Codec ID/Info               : UTF-8 Plain Text
    Duration                    : 1 h 25 min
    Bit rate                    : 54 b/s
    Count of elements           : 1182
    Stream size                 : 34.4 KiB (0%)
    Title                       : Español latino [CinemaniaHDD]
    Language                    : Spanish
    Default                     : No
    Forced                      : No

    Menu
    00:00:00.000                : en:Chapter 1
    00:02:15.333                : en:Chapter 2
    00:10:16.333                : en:Chapter 3
    00:16:47.624                : en:Chapter 4
    00:23:20.499                : en:Chapter 5
    00:27:14.790                : en:Chapter 6
    00:35:14.540                : en:Chapter 7
    00:46:42.248                : en:Chapter 8
    00:51:57.414                : en:Chapter 9
    01:00:43.789                : en:Chapter 10
    01:12:20.830                : en:Chapter 11
    01:20:32.080                : en:Chapter 12
    01:25:05.288                : en:Chapter 13

     

  • Peso: 3.39 GiB

Sinopsis

Un clásico de Dicken actualizado de forma emocionante en el corazón del Londres moderno, donde un grupo de jóvenes estafadores inteligentes planean el atraco del siglo para el mejor día de pago.

Ficha técnica

Video trailer de la película

Enlaces de descarga

Rip de Bluray

Descargar Twist (2021) WEB-DL 1080p Latino




Aportes de DPeliculasHDmega la pass es:dpeliculashdmega.org Aportes de CinemaniaHD la pass es:cinemaniahdd.com Aportes recientes:cinemaniahdd.net
Guardado en : Acción , Crimen , Drama

Películas relacionadas

  • Familia Nacional (2023) WEB-DL 1080p Latino

    Familia Nacional (2023) WEB-DL 1080p Latino

    2023
    Familia Nacional (2023) WEB-DL 1080p Latino

    1h 43m 2023

    Descargar Familia Nacional (2023) WEB-DL 1080p Latino. Don Poli es el patriarca de una familia disfuncional...

    Director: Marcelo Tobar

    Género: Acción

    Actores: Tadeo Tovar

  • La Otra Cara de Dorian (2023) WEB-DL 1080p Latino

    La Otra Cara de Dorian (2023) WEB-DL 1080p Latino

    2023
    La Otra Cara de Dorian (2023) WEB-DL 1080p Latino

    1h 40m 2023

    Descargar La Otra Cara de Dorian (2023) WEB-DL 1080p Latino. Una versión moderna del cuento de Oscar...

    Director: Richard John Taylor

    Género: Drama

    Actores: Triana Terry

  • Arthur: Una Amistad sin Limites (2024) HD 1080p Latino

    Arthur: Una Amistad sin Limites (2024) HD 1080p Latino

    2024
    Arthur: Una Amistad sin Limites (2024) HD 1080p Latino

    1h 47m 2024

    Descargar Arthur: Una Amistad sin Limites (2024) HD 1080p Latino. Mikael Lindnord, el capitán del equipo...

    Director: Simon Cellan Jones

    Género: Aventura

    Actores: Zamantha Díaz

descargar Twist (2021) WEB-DL 1080p Latino WEBDL 1080p gratis, Twist (2021) WEB-DL 1080p Latino WEBDL mega 1 link, Twist (2021) WEB-DL 1080p Latino WEBDL pelicula completa, descargar Twist (2021) WEB-DL 1080p Latino WEBDL gratis en mega.

Twist (2021) WEB-DL 1080p Latino pelicula full hd, Twist (2021) WEB-DL 1080p Latino mega latino, Twist (2021) WEB-DL 1080p Latino 4k latino, Twist (2021) WEB-DL 1080p Latino pelicula completa, Twist (2021) WEB-DL 1080p Latino descargar gratis, descargar Twist (2021) WEB-DL 1080p Latino pelicula latino, Twist (2021) WEB-DL 1080p Latino 1 link mega, Twist (2021) WEB-DL 1080p Latino 1 link google drive, Twist (2021) WEB-DL 1080p Latino hd 1080p latino.
Comentarios 0