×

¿Problemas para descargar con Mozilla, EDGE? Deshabilita la opción "Abrir vinculos en una pestaña nueva" tal como lo muestra ésta imagen.

Twilight (2008) [Open Matte] WEB-DL 1080p Latino

820 vistas

Información de Twilight (2008) [Open Matte] WEB-DL 1080p Latino

Datos de la película

  • Calidad: 1080p
  • Audio: Español Latino AC3 5.1 WEB-DL - Ingles AC3 5.1 WEB-DL
  • Subtitulos: Español Latino SRT- FORZADOS SRT
  • Resolución: 1920x1080
  • Formato: MKV
  • Codec: H.264
  • Encoder: cinemaniahdd
  • Mediainfo: Clic para Mostrar Datos Ver
  • Twilight (2008) [OpenMatte] WEB-DL 1080p Latino [CNMNHDD].mkv Format                      : Matroska Format version              : Version 4 File size                   : 8.41 GiB Duration                    : 2 h 1 min Overall bit rate mode       : Variable Overall bit rate            : 9 868 kb/s Movie name                  : Twilight (2008) [OpenMatte] - CinemaniaHDD.Net Encoded date                : UTC 2021-08-29 01:06:31 Writing application         : mkvmerge v56.1.0 ('My Friend') 64-bit Writing library             : libebml v1.4.2 + libmatroska v1.6.4 Video ID                          : 1 Format                      : AVC Format/Info                 : Advanced Video Codec Format profile              : High@L4 Format settings             : CABAC / 4 Ref Frames Format settings, CABAC      : Yes Format settings, Reference  : 4 frames Codec ID                    : V_MPEG4/ISO/AVC Duration                    : 2 h 1 min Bit rate mode               : Variable Bit rate                    : 9 020 kb/s Width                       : 1 920 pixels Height                      : 1 080 pixels Display aspect ratio        : 16:9 Frame rate mode             : Constant Frame rate                  : 23.976 (24000/1001) FPS Color space                 : YUV Chroma subsampling          : 4:2:0 Bit depth                   : 8 bits Scan type                   : Progressive Bits/(Pixel*Frame)          : 0.133 Stream size                 : 6.99 GiB (83%) Title                       : CinemaniaHDD Language                    : Spanish Default                     : Yes Forced                      : No Color range                 : Limited Color primaries             : BT.709 Transfer characteristics    : BT.709 Matrix coefficients         : BT.709 Audio #1 ID                          : 2 Format                      : AC-3 Format/Info                 : Audio Coding 3 Commercial name             : Dolby Digital Codec ID                    : A_AC3 Duration                    : 2 h 1 min Bit rate mode               : Constant Bit rate                    : 384 kb/s Channel(s)                  : 2 channels Channel layout              : L R Sampling rate               : 48.0 kHz Frame rate                  : 31.250 FPS (1536 SPF) Compression mode            : Lossy Stream size                 : 335 MiB (4%) Title                       : Español latino / 2.0 [CinemaniaHDD] Language                    : Spanish Service kind                : Complete Main Default                     : Yes Forced                      : No Audio #2 ID                          : 3 Format                      : AC-3 Format/Info                 : Audio Coding 3 Commercial name             : Dolby Digital Codec ID                    : A_AC3 Duration                    : 2 h 1 min Bit rate mode               : Constant Bit rate                    : 640 kb/s Channel(s)                  : 6 channels Channel layout              : L R C LFE Ls Rs Sampling rate               : 48.0 kHz Frame rate                  : 31.250 FPS (1536 SPF) Compression mode            : Lossy Stream size                 : 558 MiB (6%) Title                       : Español latino / 5.1 [CinemaniaHDD] Language                    : Spanish Service kind                : Complete Main Default                     : No Forced                      : No Audio #3 ID                          : 4 Format                      : AC-3 Format/Info                 : Audio Coding 3 Commercial name             : Dolby Digital Codec ID                    : A_AC3 Duration                    : 2 h 1 min Bit rate mode               : Constant Bit rate                    : 640 kb/s Channel(s)                  : 6 channels Channel layout              : L R C LFE Ls Rs Sampling rate               : 48.0 kHz Frame rate                  : 31.250 FPS (1536 SPF) Compression mode            : Lossy Stream size                 : 558 MiB (6%) Title                       : Inglés / 5.1 [CinemaniaHDD] Language                    : English Service kind                : Complete Main Default                     : No Forced                      : No Text #1 ID                          : 5 Format                      : UTF-8 Codec ID                    : S_TEXT/UTF8 Codec ID/Info               : UTF-8 Plain Text Duration                    : 1 h 17 min Bit rate                    : 0 b/s Count of elements           : 6 Stream size                 : 158 Bytes (0%) Title                       : Forzados [CinemaniaHDD] Language                    : Spanish Default                     : Yes Forced                      : Yes Text #2 ID                          : 6 Format                      : UTF-8 Codec ID                    : S_TEXT/UTF8 Codec ID/Info               : UTF-8 Plain Text Duration                    : 1 h 52 min Bit rate                    : 43 b/s Count of elements           : 1342 Stream size                 : 36.3 KiB (0%) Title                       : Español latino [CinemaniaHDD] Language                    : Spanish Default                     : No Forced                      : No  
  • Peso: 8.41 GiB

Sinopsis

La joven Bella Swan siempre fue una chica muy diferente ya en sus años de niña en Phoenix. Cuando su madre se volvió a casar, la mandó a vivir con su padre, a la pequeña y lluviosa ciudad de Forks, Washington, una población sin ningún aliciente para Bella. Pero entonces conoce en el instituo al misterioso y atractivo Edward Cullen, un joven distinto a los demás que esconde un secreto…

Ficha técnica

Video trailer de la película

Enlaces de descarga

Rip de Bluray

Descargar Twilight (2008) [Open Matte] WEB-DL 1080p Latino




Aportes de DPeliculasHDmega la pass es:dpeliculashdmega.org Aportes de CinemaniaHD la pass es:cinemaniahdd.com Aportes recientes:cinemaniahdd.net
Guardado en : Drama , Fantasía , OPEN MATTE , Romance

Películas relacionadas

descargar Twilight (2008) [Open Matte] WEB-DL 1080p Latino 1080p 1080p gratis, Twilight (2008) [Open Matte] WEB-DL 1080p Latino 1080p mega 1 link, Twilight (2008) [Open Matte] WEB-DL 1080p Latino 1080p pelicula completa, descargar Twilight (2008) [Open Matte] WEB-DL 1080p Latino 1080p gratis en mega.

Twilight (2008) [Open Matte] WEB-DL 1080p Latino pelicula full hd, Twilight (2008) [Open Matte] WEB-DL 1080p Latino mega latino, Twilight (2008) [Open Matte] WEB-DL 1080p Latino 4k latino, Twilight (2008) [Open Matte] WEB-DL 1080p Latino pelicula completa, Twilight (2008) [Open Matte] WEB-DL 1080p Latino descargar gratis, descargar Twilight (2008) [Open Matte] WEB-DL 1080p Latino pelicula latino, Twilight (2008) [Open Matte] WEB-DL 1080p Latino 1 link mega, Twilight (2008) [Open Matte] WEB-DL 1080p Latino 1 link google drive, Twilight (2008) [Open Matte] WEB-DL 1080p Latino hd 1080p latino.
Comentarios 1