×

¿Problemas para descargar con Mozilla, EDGE? Deshabilita la opción "Abrir vinculos en una pestaña nueva" tal como lo muestra ésta imagen.

The Walking Dead: Dead City (2023) Temporada 01 REMUX 1080p Latino

197 vistas

Información de The Walking Dead: Dead City (2023) Temporada 01 REMUX 1080p Latino

Datos de la película

  • Calidad: Full 1080p
  • Audio: Se especifica abajo de la Sinopsis
  • Subtitulos: Español Latino PGS - Ingles PGS
  • Resolución: 1920x1080p
  • Formato: MKV
  • Codec: H.264
  • Encoder: Melkor
  • Mediainfo: Clic para Mostrar Datos Ver
  • TWD Dead City S01E01 (2023) REMUX 1080p Latino.mkv
    Format                      : Matroska
    Format version              : Version 4
    File size                   : 14.4 GiB
    Duration                    : 49 min 39 s
    Overall bit rate mode       : Variable
    Overall bit rate            : 41.5 Mb/s
    Movie name                  : TWD Dead City S01E01 - Old Acquaintances CinemaniaHDD.Net
    Encoded date                : UTC 2023-09-19 07:13:00
    Writing application         : mkvmerge v56.1.0 ('My Friend') 64-bit
    Writing library             : libebml v1.4.2 + libmatroska v1.6.4
    Cover                       : Yes
    Attachments                 : cover.jpg / CINEMANIAHD.png
    Site                        : CinemaniaHDD.Net
    Uploader                    : Melkor

    Video
    ID                          : 1
    Format                      : AVC
    Format/Info                 : Advanced Video Codec
    Format profile              : High@L4.1
    Format settings             : CABAC / 4 Ref Frames
    Format settings, CABAC      : Yes
    Format settings, Reference  : 4 frames
    Codec ID                    : V_MPEG4/ISO/AVC
    Duration                    : 49 min 39 s
    Bit rate mode               : Variable
    Bit rate                    : 34.4 Mb/s
    Maximum bit rate            : 37.0 Mb/s
    Width                       : 1 920 pixels
    Height                      : 1 080 pixels
    Display aspect ratio        : 16:9
    Frame rate mode             : Constant
    Frame rate                  : 23.976 (24000/1001) FPS
    Color space                 : YUV
    Chroma subsampling          : 4:2:0
    Bit depth                   : 8 bits
    Scan type                   : Progressive
    Bits/(Pixel*Frame)          : 0.693
    Stream size                 : 11.9 GiB (83%)
    Title                       : REMUX HD1080p [CinemaniaHDD]
    Default                     : Yes
    Forced                      : Yes

    Audio #1
    ID                          : 2
    ID in the original source m : 4353 (0x1101)
    Format                      : DTS XLL
    Format/Info                 : Digital Theater Systems
    Commercial name             : DTS-HD Master Audio
    Codec ID                    : A_DTS
    Duration                    : 49 min 38 s
    Bit rate mode               : Variable
    Bit rate                    : 3 513 kb/s
    Channel(s)                  : 6 channels
    Channel layout              : C L R Ls Rs LFE
    Sampling rate               : 48.0 kHz
    Frame rate                  : 93.750 FPS (512 SPF)
    Bit depth                   : 24 bits
    Compression mode            : Lossless
    Stream size                 : 1.22 GiB (8%)
    Title                       : Español Latino [CinemaniaHDD]
    Language                    : Spanish
    Default                     : Yes
    Forced                      : Yes
    Original source medium      : Blu-ray

    Audio #2
    ID                          : 3
    ID in the original source m : 4352 (0x1100)
    Format                      : DTS XLL
    Format/Info                 : Digital Theater Systems
    Commercial name             : DTS-HD Master Audio
    Codec ID                    : A_DTS
    Duration                    : 49 min 38 s
    Bit rate mode               : Variable
    Bit rate                    : 3 500 kb/s
    Channel(s)                  : 6 channels
    Channel layout              : C L R Ls Rs LFE
    Sampling rate               : 48.0 kHz
    Frame rate                  : 93.750 FPS (512 SPF)
    Bit depth                   : 24 bits
    Compression mode            : Lossless
    Stream size                 : 1.21 GiB (8%)
    Title                       : Ingles [CinemaniaHDD]
    Language                    : English
    Default                     : No
    Forced                      : No
    Original source medium      : Blu-ray

    Text #1
    ID                          : 4
    ID in the original source m : 4610 (0x1202)
    Format                      : PGS
    Muxing mode                 : zlib
    Codec ID                    : S_HDMV/PGS
    Codec ID/Info               : Picture based subtitle format used on BDs/HD-DVDs
    Duration                    : 14 min 15 s
    Bit rate                    : 708 b/s
    Count of elements           : 8
    Stream size                 : 74.0 KiB (0%)
    Title                       : Forzados-PGS [CinemaniaHDD]
    Language                    : Spanish
    Default                     : No
    Forced                      : No
    Original source medium      : Blu-ray

    Text #2
    ID                          : 5
    ID in the original source m : 4609 (0x1201)
    Format                      : PGS
    Muxing mode                 : zlib
    Codec ID                    : S_HDMV/PGS
    Codec ID/Info               : Picture based subtitle format used on BDs/HD-DVDs
    Duration                    : 46 min 9 s
    Bit rate                    : 13.4 kb/s
    Count of elements           : 640
    Stream size                 : 4.43 MiB (0%)
    Title                       : Español-PGS [CinemaniaHDD]
    Language                    : Spanish
    Default                     : No
    Forced                      : No
    Original source medium      : Blu-ray

    Text #3
    ID                          : 6
    ID in the original source m : 4608 (0x1200)
    Format                      : PGS
    Muxing mode                 : zlib
    Codec ID                    : S_HDMV/PGS
    Codec ID/Info               : Picture based subtitle format used on BDs/HD-DVDs
    Duration                    : 49 min 8 s
    Bit rate                    : 14.7 kb/s
    Count of elements           : 866
    Stream size                 : 5.15 MiB (0%)
    Title                       : Ingles [CinemaniaHDD]
    Language                    : English
    Default                     : No
    Forced                      : No
    Original source medium      : Blu-ray

    Text #4
    ID                          : 7
    Format                      : UTF-8
    Codec ID                    : S_TEXT/UTF8
    Codec ID/Info               : UTF-8 Plain Text
    Duration                    : 29 min 51 s
    Bit rate                    : 0 b/s
    Count of elements           : 3
    Stream size                 : 104 Bytes (0%)
    Title                       : Forzados-SRT [CinemaniaHDD]
    Language                    : Spanish
    Default                     : Yes
    Forced                      : Yes

    Text #5
    ID                          : 8
    Format                      : UTF-8
    Codec ID                    : S_TEXT/UTF8
    Codec ID/Info               : UTF-8 Plain Text
    Duration                    : 45 min 29 s
    Bit rate                    : 35 b/s
    Count of elements           : 356
    Stream size                 : 12.0 KiB (0%)
    Title                       : Español-SRT [CinemaniaHDD]
    Language                    : Spanish
    Default                     : No
    Forced                      : No

    Menu
    00:00:00.000                : Chapter 01
    00:03:30.251                : Chapter 02
    00:08:25.463                : Chapter 03
    00:14:07.346                : Chapter 04
    00:19:59.823                : Chapter 05
    00:25:18.266                : Chapter 06
    00:34:20.767                : Chapter 07
    00:44:06.185                : Chapter 08
    00:49:06.944                : Chapter 09

  • Peso: 12.5 GiB Aprox C/U - 74 GiB - 6 Chapters

Sinopsis

Descargar The Walking Dead: Dead City (2023) Temporada 01 REMUX 1080p Latino. «Dead City» amplía la narración de «The Walking Dead» en torno a dos personajes inolvidables que los fanáticos han llegado a amar, odiar y luego amar en Maggie y Negan. También explora un rincón de este universo ubicado en la isla de Manhattan, con un horizonte icónico que adquiere un significado muy diferente cuando se ve a través de la lente de un apocalipsis zombie.

Español Latino – Ingles [DTS-HD MA 5.1 BD]

Ficha técnica

Video trailer de la película

Enlaces de descarga

Rip de Bluray

Descargar The Walking Dead: Dead City (2023) Temporada 01 REMUX 1080p Latino


Aportes de DPeliculasHDmega la pass es:dpeliculashdmega.org Aportes de CinemaniaHD la pass es:cinemaniahdd.com Aportes recientes:cinemaniahdd.net

Películas relacionadas

descargar The Walking Dead: Dead City (2023) Temporada 01 REMUX 1080p Latino Full 1080p 1080p gratis, The Walking Dead: Dead City (2023) Temporada 01 REMUX 1080p Latino Full 1080p mega 1 link, The Walking Dead: Dead City (2023) Temporada 01 REMUX 1080p Latino Full 1080p serie completa, descargar The Walking Dead: Dead City (2023) Temporada 01 REMUX 1080p Latino Full 1080p gratis en mega.

The Walking Dead: Dead City (2023) Temporada 01 REMUX 1080p Latino pelicula full hd, The Walking Dead: Dead City (2023) Temporada 01 REMUX 1080p Latino mega latino, The Walking Dead: Dead City (2023) Temporada 01 REMUX 1080p Latino 4k latino, The Walking Dead: Dead City (2023) Temporada 01 REMUX 1080p Latino pelicula completa, The Walking Dead: Dead City (2023) Temporada 01 REMUX 1080p Latino descargar gratis, descargar The Walking Dead: Dead City (2023) Temporada 01 REMUX 1080p Latino pelicula latino, The Walking Dead: Dead City (2023) Temporada 01 REMUX 1080p Latino 1 link mega, The Walking Dead: Dead City (2023) Temporada 01 REMUX 1080p Latino 1 link google drive, The Walking Dead: Dead City (2023) Temporada 01 REMUX 1080p Latino hd 1080p latino.
Comentarios 0