Tunnel (2016) 1080p Latino

1.738 vistas
1 estrella2 estrellas3 estrellas4 estrellas5 estrellas (Ninguna valoración todavía)
Cargando…

Información de Tunnel (2016) 1080p Latino

Datos de la película

  • Calidad: 1080p
  • Audio: Español Latino AC3 2.0 Capturado -Chino AC3 5.1 BLURAY
  • Subtitulos: Español Latino SRT
  • Resolución: 1920x804p
  • Formato: MKV
  • Codec: H.264
  • Encoder: Dpelis
  • Mediainfo: Clic para Mostrar Datos Ver
  • Tunnel (2016) 1080p Latino.mkv
    Format                      : Matroska
    Format version              : Version 4 / Version 2
    File size                   : 3.58 GiB
    Duration                    : 2 h 6 min
    Overall bit rate            : 4 059 kb/s
    Movie name                  : DPeliculasHDMega.ORG
    Encoded date                : UTC 2017-09-16 22:14:43 / UTC 2017-09-16T20:54:41Z
    Writing application         : mkvmerge v10.0.0 ('To Drown In You') 64bit
    Writing library             : libebml v1.3.4 + libmatroska v1.4.5 / Lavf57.7.2

    Video
    ID                          : 1
    Format                      : AVC
    Format/Info                 : Advanced Video Codec
    Format profile              : [email protected]
    Format settings, CABAC      : Yes
    Format settings, RefFrames  : 4 frames
    Codec ID                    : V_MPEG4/ISO/AVC
    Duration                    : 2 h 6 min
    Bit rate                    : 3 500 kb/s
    Width                       : 1 920 pixels
    Height                      : 804 pixels
    Display aspect ratio        : 2.40:1
    Frame rate mode             : Constant
    Frame rate                  : 23.976 (24000/1001) FPS
    Color space                 : YUV
    Chroma subsampling          : 4:2:0
    Bit depth                   : 8 bits
    Scan type                   : Progressive
    Bits/(Pixel*Frame)          : 0.095
    Stream size                 : 3.00 GiB (84%)
    Writing library             : x264 core 148 r2708 86b7198
    Encoding settings           : cabac=1 / ref=3 / deblock=1:0:0 / analyse=0x3:0x113 / me=hex / subme=7 / psy=1 / psy_rd=1.00:0.00 / mixed_ref=1 / me_range=16 / chroma_me=1 / trellis=1 / 8x8dct=1 / cqm=0 / deadzone=21,11 / fast_pskip=1 / chroma_qp_offset=-2 / threads=12 / lookahead_threads=2 / sliced_threads=0 / nr=0 / decimate=1 / interlaced=0 / bluray_compat=0 / constrained_intra=0 / bframes=3 / b_pyramid=2 / b_adapt=1 / b_bias=0 / direct=1 / weightb=1 / open_gop=0 / weightp=2 / keyint=240 / keyint_min=24 / scenecut=40 / intra_refresh=0 / rc_lookahead=40 / rc=abr / mbtree=1 / bitrate=3500 / ratetol=1.0 / qcomp=0.60 / qpmin=0 / qpmax=69 / qpstep=4 / vbv_maxrate=62500 / vbv_bufsize=78125 / nal_hrd=none / filler=0 / ip_ratio=1.40 / aq=1:1.00
    Default                     : Yes
    Forced                      : No
    Color range                 : Limited
    Color primaries             : BT.709
    Transfer characteristics    : BT.709
    Matrix coefficients         : BT.709
    Statistics Tags Issue       : mkvmerge v10.0.0 ('To Drown In You') 64bit 2017-09-16 22:14:43 / mkvmerge v10.0.0 ('To Drown In You') 64bit 2017-09-16 22:14:43 / UTC 2017-09-16T20:54:41Z
    FromStats_BitRate           : 3480911
    FromStats_Duration          : 02:06:23.284000000
    FromStats_FrameCount        : 181817
    FromStats_StreamSize        : 3299592217

    Audio #1
    ID                          : 2
    Format                      : AC-3
    Format/Info                 : Audio Coding 3
    Format settings, Endianness : Big
    Codec ID                    : A_AC3
    Duration                    : 2 h 6 min
    Bit rate mode               : Constant
    Bit rate                    : 192 kb/s
    Channel(s)                  : 2 channels
    Channel positions           : Front: L R
    Sampling rate               : 48.0 kHz
    Frame rate                  : 31.250 FPS (1536 SPF)
    Bit depth                   : 16 bits
    Compression mode            : Lossy
    Delay relative to video     : -5 ms
    Stream size                 : 174 MiB (5%)
    Language                    : Spanish
    Service kind                : Complete Main
    Default                     : Yes
    Forced                      : No
    Statistics Tags Issue       : mkvmerge v10.0.0 ('To Drown In You') 64bit 2017-09-16 22:14:43 / mkvmerge v10.0.0 ('To Drown In You') 64bit 2017-09-16 22:14:43 / UTC 2017-09-16T20:54:41Z
    FromStats_BitRate           : 192000
    FromStats_Duration          : 02:06:23.072000000
    FromStats_FrameCount        : 236971
    FromStats_StreamSize        : 181993728

    Audio #2
    ID                          : 3
    Format                      : AC-3
    Format/Info                 : Audio Coding 3
    Format settings, Endianness : Big
    Codec ID                    : A_AC3
    Duration                    : 2 h 6 min
    Bit rate mode               : Constant
    Bit rate                    : 384 kb/s
    Channel(s)                  : 6 channels
    Channel positions           : Front: L C R, Side: L R, LFE
    Sampling rate               : 48.0 kHz
    Frame rate                  : 31.250 FPS (1536 SPF)
    Bit depth                   : 16 bits
    Compression mode            : Lossy
    Delay relative to video     : -5 ms
    Stream size                 : 347 MiB (9%)
    Title                       : Surround
    Language                    : Korean
    Service kind                : Complete Main
    Default                     : No
    Forced                      : No
    Statistics Tags Issue       : mkvmerge v10.0.0 ('To Drown In You') 64bit 2017-09-16 22:14:43 / mkvmerge v10.0.0 ('To Drown In You') 64bit 2017-09-16 22:14:43 / UTC 2017-09-16T20:54:41Z
    FromStats_BitRate           : 384000
    FromStats_Duration          : 02:06:23.264000000
    FromStats_FrameCount        : 236977
    FromStats_StreamSize        : 363996672

    Text
    ID                          : 4
    Format                      : UTF-8
    Codec ID                    : S_TEXT/UTF8
    Codec ID/Info               : UTF-8 Plain Text
    Language                    : Spanish
    Default                     : No
    Forced                      : No
    Statistics Tags Issue       : mkvmerge v10.0.0 ('To Drown In You') 64bit 2017-09-16 22:14:43 / mkvmerge v10.0.0 ('To Drown In You') 64bit 2017-09-16 22:14:43 / UTC 2017-09-16T20:54:41Z
    FromStats_BitRate           : 44
    FromStats_Duration          : 02:01:13.150000000
    FromStats_FrameCount        : 1084
    FromStats_StreamSize        : 40641

  • Peso: 3.58 GB

Sinopsis

Jung-soo se dirige a casa con satisfacción, tras una provechosa jornada de trabajo. Sin embargo, el túnel que atraviesa con su coche se colapsa, y él queda atrapado dentro, con tan solo un 78% de batería y con dos botellas de agua y el pastel de cumpleaños de su hija como único medio de subsistencia. Mientras, Dae-kyung debe liderar un equipo de rescate que trabaja más lentamente de lo previsto.

Ficha técnica

  • Titulo original: Tunnel
  • Fecha de lanzamiento: 10-08-2016 (South Korea)
  • Director: Kim Seong-hoon
  • Género: Drama, Suspenso
  • Puntuación: 0.0 0 votos
  • Duración:
    2h 6m

Video trailer de la película

Enlaces de descarga

Rip de Bluray

Descargar Tunnel (2016) 1080p Latino




Aportes de DPeliculasHDmega la pass es:dpeliculashdmega.org Aportes de CinemaniaHD la pass es:cinemaniahdd.com
Guardado en : Drama , Suspenso

Películas relacionadas

  • Replicas (2018) REMUX 1080p Latino

    2018
    Replicas (2018) REMUX 1080p Latino

    0.0 1h 47m 2018

    Thriller de ciencia ficción que se centra en un neurocientífico que, después de sufrir un accidente...

    Director: Jeffrey Nachmanoff

    Género: Ciencia ficción

    Actores: Thomas Middleditch

  • Man On A Ledge (2012) REMUX (Open Matte) 1080P Latino

    2012
    Man On A Ledge (2012) REMUX (Open Matte) 1080P Latino

    0.0 1h 42m 2012

    Nick Cassidy (Sam Worthington), un antiguo agente de policía, se escapa de la cárcel y se dirige al...

    Director: Melissa Kalbfus

    Género: Acción

    Actores: William Sadler

Comentarios 6
  • piero - 18 septiembre, 2017

    hola queria preguntar si hoy van a subir mas pelis….saludos

    • dpelis - 18 septiembre, 2017

      si una no mas se publico

      • piero - 18 septiembre, 2017

        gracias

        • dpelis - 18 septiembre, 2017

          de nada, saludos

  • piero - 17 septiembre, 2017

    hola les queria mencionar que los enlaces de google drive no estan

    • dpelis - 17 septiembre, 2017

      agregados, se me olvido