×

¿Problemas para descargar con Mozilla, EDGE? Deshabilita la opción "Abrir vinculos en una pestaña nueva" tal como lo muestra ésta imagen.

Tulsa King (2022) Primera Temporada AMZN WEB-DL 1080p Latino

727 vistas

Información de Tulsa King (2022) Primera Temporada AMZN WEB-DL 1080p Latino

Datos de la película

  • Calidad: 1080p
  • Audio: Español Latino AC3 2.0 WEB-DL - Ingles AC3 5.1 WEB-DL
  • Subtitulos: Español Latino SRT- FORZADOS SRT
  • Resolución: 1920x1080
  • Formato: MKV
  • Codec: H.264
  • Encoder: cinemaniahdd
  • Mediainfo: Clic para Mostrar Datos Ver
  • Tulsa King T01E09 AMZN WEB-DL 1080p Latino [CNMNHDD].mkv
    Format                      : Matroska
    Format version              : Version 4
    File size                   : 2.41 GiB
    Duration                    : 36 min 47 s
    Overall bit rate            : 9 377 kb/s
    Movie name                  : Tulsa King S01E09 - Happy Trails [1080p] - CinemaniaHDD.Net
    Encoded date                : UTC 2023-02-12 16:03:30
    Writing application         : mkvmerge v56.1.0 ('My Friend') 64-bit
    Writing library             : libebml v1.4.2 + libmatroska v1.6.4

    Video
    ID                          : 1
    Format                      : AVC
    Format/Info                 : Advanced Video Codec
    Format profile              : High@L4
    Format settings             : CABAC / 4 Ref Frames
    Format settings, CABAC      : Yes
    Format settings, Reference  : 4 frames
    Codec ID                    : V_MPEG4/ISO/AVC
    Duration                    : 36 min 47 s
    Bit rate mode               : Constant
    Bit rate                    : 8 126 kb/s
    Nominal bit rate            : 10 000 kb/s
    Width                       : 1 920 pixels
    Height                      : 1 080 pixels
    Display aspect ratio        : 16:9
    Frame rate mode             : Constant
    Frame rate                  : 23.976 (24000/1001) FPS
    Color space                 : YUV
    Chroma subsampling          : 4:2:0
    Bit depth                   : 8 bits
    Scan type                   : Progressive
    Bits/(Pixel*Frame)          : 0.163
    Stream size                 : 2.09 GiB (87%)
    Title                       : CinemaniaHDD
    Default                     : Yes
    Forced                      : No
    Color range                 : Limited
    Color primaries             : BT.709
    Transfer characteristics    : BT.709
    Matrix coefficients         : BT.709

    Audio #1
    ID                          : 2
    Format                      : AC-3
    Format/Info                 : Audio Coding 3
    Commercial name             : Dolby Digital
    Codec ID                    : A_AC3
    Duration                    : 36 min 47 s
    Bit rate mode               : Constant
    Bit rate                    : 384 kb/s
    Channel(s)                  : 2 channels
    Channel layout              : L R
    Sampling rate               : 48.0 kHz
    Frame rate                  : 31.250 FPS (1536 SPF)
    Compression mode            : Lossy
    Stream size                 : 101 MiB (4%)
    Title                       : Español latino [CinemaniaHDD]
    Language                    : Spanish
    Service kind                : Complete Main
    Default                     : Yes
    Forced                      : No

    Audio #2
    ID                          : 3
    Format                      : E-AC-3
    Format/Info                 : Enhanced AC-3
    Commercial name             : Dolby Digital Plus
    Codec ID                    : A_EAC3
    Duration                    : 36 min 47 s
    Bit rate mode               : Constant
    Bit rate                    : 224 kb/s
    Channel(s)                  : 2 channels
    Channel layout              : L R
    Sampling rate               : 48.0 kHz
    Frame rate                  : 31.250 FPS (1536 SPF)
    Compression mode            : Lossy
    Stream size                 : 58.9 MiB (2%)
    Title                       : Español latino / E-AC3 [CinemaniaHDD]
    Language                    : Spanish
    Service kind                : Complete Main
    Default                     : No
    Forced                      : No

    Audio #3
    ID                          : 4
    Format                      : E-AC-3
    Format/Info                 : Enhanced AC-3
    Commercial name             : Dolby Digital Plus
    Codec ID                    : A_EAC3
    Duration                    : 36 min 47 s
    Bit rate mode               : Constant
    Bit rate                    : 640 kb/s
    Channel(s)                  : 6 channels
    Channel layout              : L R C LFE Ls Rs
    Sampling rate               : 48.0 kHz
    Frame rate                  : 31.250 FPS (1536 SPF)
    Compression mode            : Lossy
    Stream size                 : 168 MiB (7%)
    Title                       : Inglés [CinemaniaHDD]
    Language                    : English
    Service kind                : Complete Main
    Default                     : No
    Forced                      : No

    Text #1
    ID                          : 5
    Format                      : UTF-8
    Codec ID                    : S_TEXT/UTF8
    Codec ID/Info               : UTF-8 Plain Text
    Duration                    : 22 min 29 s
    Bit rate                    : 0 b/s
    Count of elements           : 6
    Stream size                 : 133 Bytes (0%)
    Title                       : Forzados [CinemaniaHDD]
    Language                    : Spanish
    Default                     : Yes
    Forced                      : Yes

    Text #2
    ID                          : 6
    Format                      : UTF-8
    Codec ID                    : S_TEXT/UTF8
    Codec ID/Info               : UTF-8 Plain Text
    Duration                    : 35 min 37 s
    Bit rate                    : 60 b/s
    Count of elements           : 546
    Stream size                 : 15.9 KiB (0%)
    Title                       : Español latino [CinemaniaHDD]
    Language                    : Spanish
    Default                     : No
    Forced                      : No

    Text #3
    ID                          : 7
    Format                      : UTF-8
    Codec ID                    : S_TEXT/UTF8
    Codec ID/Info               : UTF-8 Plain Text
    Duration                    : 36 min 38 s
    Bit rate                    : 69 b/s
    Count of elements           : 630
    Stream size                 : 18.7 KiB (0%)
    Title                       : Inglés [CinemaniaHDD]
    Language                    : English
    Default                     : No
    Forced                      : No

     

  • Peso: 2.41 GiB Aprox ---- 19 GiB in 9 Chapters.

Sinopsis

Después de cumplir 25 años en prisión, Dwight Manfredi es exiliado por su jefe de la mafia para establecer una tienda en Oklahoma. Dwight construye lentamente un nuevo imperio criminal en Tulsa.

Ficha técnica

Video trailer de la película

Enlaces de descarga

Rip de Bluray

Descargar Tulsa King (2022) Primera Temporada AMZN WEB-DL 1080p Latino




Aportes de DPeliculasHDmega la pass es:dpeliculashdmega.org Aportes de CinemaniaHD la pass es:cinemaniahdd.com Aportes recientes:cinemaniahdd.net
Guardado en : Crimen , Drama , Series

Películas relacionadas

descargar Tulsa King (2022) Primera Temporada AMZN WEB-DL 1080p Latino 1080p 1080p gratis, Tulsa King (2022) Primera Temporada AMZN WEB-DL 1080p Latino 1080p mega 1 link, Tulsa King (2022) Primera Temporada AMZN WEB-DL 1080p Latino 1080p serie completa, descargar Tulsa King (2022) Primera Temporada AMZN WEB-DL 1080p Latino 1080p gratis en mega.

Tulsa King (2022) Primera Temporada AMZN WEB-DL 1080p Latino pelicula full hd, Tulsa King (2022) Primera Temporada AMZN WEB-DL 1080p Latino mega latino, Tulsa King (2022) Primera Temporada AMZN WEB-DL 1080p Latino 4k latino, Tulsa King (2022) Primera Temporada AMZN WEB-DL 1080p Latino pelicula completa, Tulsa King (2022) Primera Temporada AMZN WEB-DL 1080p Latino descargar gratis, descargar Tulsa King (2022) Primera Temporada AMZN WEB-DL 1080p Latino pelicula latino, Tulsa King (2022) Primera Temporada AMZN WEB-DL 1080p Latino 1 link mega, Tulsa King (2022) Primera Temporada AMZN WEB-DL 1080p Latino 1 link google drive, Tulsa King (2022) Primera Temporada AMZN WEB-DL 1080p Latino hd 1080p latino.
Comentarios 2