×

¿Problemas para descargar con Mozilla, EDGE? Deshabilita la opción "Abrir vinculos en una pestaña nueva" tal como lo muestra ésta imagen.

Tulsa King (2022) Temporada 1 AMZN WEB-DL 1080p Latino

95 vistas

Información de Tulsa King (2022) Temporada 1 AMZN WEB-DL 1080p Latino

Datos de la película

  • Calidad: 1080p
  • Audio: Español Latino AC3 2.0 WEB-DL - Ingles AC3 5.1 WEB-DL
  • Subtitulos: Español Latino SRT- FORZADOS SRT
  • Resolución: 1920x1080
  • Formato: MKV
  • Codec: H.264
  • Encoder: cinemaniahdd
  • Mediainfo: Clic para Mostrar Datos Ver
  • Tulsa King T01E01 AMZN WEB-DL 1080p Latino [CNMNHDD].mkv Format                      : Matroska Format version              : Version 4 File size                   : 2.31 GiB Duration                    : 41 min 30 s Overall bit rate            : 7 976 kb/s Movie name                  : Tulsa King S01E01 - Go West Old Man [1080p] - CinemaniaHDD.Net Encoded date                : UTC 2022-12-25 17:12:28 Writing application         : mkvmerge v56.1.0 ('My Friend') 64-bit Writing library             : libebml v1.4.2 + libmatroska v1.6.4 Video ID                          : 1 Format                      : AVC Format/Info                 : Advanced Video Codec Format profile              : High@L4 Format settings             : CABAC / 4 Ref Frames Format settings, CABAC      : Yes Format settings, Reference  : 4 frames Codec ID                    : V_MPEG4/ISO/AVC Duration                    : 41 min 30 s Bit rate mode               : Constant Bit rate                    : 6 725 kb/s Nominal bit rate            : 10 000 kb/s Width                       : 1 920 pixels Height                      : 1 080 pixels Display aspect ratio        : 16:9 Frame rate mode             : Constant Frame rate                  : 23.976 (24000/1001) FPS Color space                 : YUV Chroma subsampling          : 4:2:0 Bit depth                   : 8 bits Scan type                   : Progressive Bits/(Pixel*Frame)          : 0.135 Stream size                 : 1.95 GiB (84%) Title                       : CinemaniaHDD Default                     : Yes Forced                      : No Color range                 : Limited Color primaries             : BT.709 Transfer characteristics    : BT.709 Matrix coefficients         : BT.709 Audio #1 ID                          : 2 Format                      : AC-3 Format/Info                 : Audio Coding 3 Commercial name             : Dolby Digital Codec ID                    : A_AC3 Duration                    : 41 min 30 s Bit rate mode               : Constant Bit rate                    : 384 kb/s Channel(s)                  : 2 channels Channel layout              : L R Sampling rate               : 48.0 kHz Frame rate                  : 31.250 FPS (1536 SPF) Compression mode            : Lossy Stream size                 : 114 MiB (5%) Title                       : Español latino [CinemaniaHDD] Language                    : Spanish Service kind                : Complete Main Default                     : Yes Forced                      : No Audio #2 ID                          : 3 Format                      : E-AC-3 Format/Info                 : Enhanced AC-3 Commercial name             : Dolby Digital Plus Codec ID                    : A_EAC3 Duration                    : 41 min 30 s Bit rate mode               : Constant Bit rate                    : 224 kb/s Channel(s)                  : 2 channels Channel layout              : L R Sampling rate               : 48.0 kHz Frame rate                  : 31.250 FPS (1536 SPF) Compression mode            : Lossy Stream size                 : 66.5 MiB (3%) Title                       : Español latino / E-AC3 [CinemaniaHDD] Language                    : Spanish Service kind                : Complete Main Default                     : No Forced                      : No Audio #3 ID                          : 4 Format                      : E-AC-3 Format/Info                 : Enhanced AC-3 Commercial name             : Dolby Digital Plus Codec ID                    : A_EAC3 Duration                    : 41 min 30 s Bit rate mode               : Constant Bit rate                    : 640 kb/s Channel(s)                  : 6 channels Channel layout              : L R C LFE Ls Rs Sampling rate               : 48.0 kHz Frame rate                  : 31.250 FPS (1536 SPF) Compression mode            : Lossy Stream size                 : 190 MiB (8%) Title                       : Inglés [CinemaniaHDD] Language                    : English Service kind                : Complete Main Default                     : No Forced                      : No Text #1 ID                          : 5 Format                      : UTF-8 Codec ID                    : S_TEXT/UTF8 Codec ID/Info               : UTF-8 Plain Text Duration                    : 22 min 2 s Bit rate                    : 0 b/s Count of elements           : 3 Stream size                 : 55.0 Bytes (0%) Title                       : Forzados [CinemaniaHDD] Language                    : Spanish Default                     : Yes Forced                      : Yes Text #2 ID                          : 6 Format                      : UTF-8 Codec ID                    : S_TEXT/UTF8 Codec ID/Info               : UTF-8 Plain Text Duration                    : 40 min 46 s Bit rate                    : 70 b/s Count of elements           : 728 Stream size                 : 21.0 KiB (0%) Title                       : Español latino [CinemaniaHDD] Language                    : Spanish Default                     : No Forced                      : No Text #3 ID                          : 7 Format                      : UTF-8 Codec ID                    : S_TEXT/UTF8 Codec ID/Info               : UTF-8 Plain Text Duration                    : 40 min 54 s Bit rate                    : 76 b/s Count of elements           : 735 Stream size                 : 22.9 KiB (0%) Title                       : Inglés [CinemaniaHDD] Language                    : English Default                     : No Forced                      : No  
  • Peso: 2.31 GiB C/U --- 8 CAPITULOS AGREGADOS

Sinopsis

Después de cumplir 25 años en prisión, Dwight Manfredi es exiliado por su jefe de la mafia para establecer una tienda en Oklahoma. Dwight construye lentamente un nuevo imperio criminal en Tulsa.
8 CAPITULOS AGREGADOS

Ficha técnica

Video trailer de la película

Enlaces de descarga

Rip de Bluray

Descargar Tulsa King (2022) Temporada 1 AMZN WEB-DL 1080p Latino




Aportes de DPeliculasHDmega la pass es:dpeliculashdmega.org Aportes de CinemaniaHD la pass es:cinemaniahdd.com
Guardado en : Crimen , Drama , Series

Películas relacionadas

  • El discurso del Rey (2010) 1080p Latino

    El discurso del Rey (2010) 1080p Latino

    2010
    El discurso del Rey (2010) 1080p Latino

    1h 58m 2010

    Descargar El discurso del Rey (2010) 1080p Latino. El duque de York se convirtió en rey de Gran Bretaña...

    Director: Tom Hooper

    Género: Drama

    Actores: Tony Earnshaw

  • El discurso del Rey (2010) Full HD 1080p Latino

    El discurso del Rey (2010) Full HD 1080p Latino

    2010
    El discurso del Rey (2010) Full HD 1080p Latino

    1h 58m 2010

    Descargar El discurso del Rey (2010) Full HD 1080p Latino. El duque de York se convirtió en rey de Gran...

    Director: Tom Hooper

    Género: Drama

    Actores: Tony Earnshaw

  • El discurso del Rey (2010) REMUX 1080p Latino

    El discurso del Rey (2010) REMUX 1080p Latino

    2010
    El discurso del Rey (2010) REMUX 1080p Latino

    1h 58m 2010

    Descargar El discurso del Rey (2010) REMUX 1080p Latino. El duque de York se convirtió en rey de Gran...

    Director: Tom Hooper

    Género: Drama

    Actores: Tony Earnshaw

  • 8 Mile (2002) REMUX 4K HDR Latino – CMHDD

    8 Mile (2002) REMUX 4K HDR Latino – CMHDD

    2002
    8 Mile (2002) REMUX 4K HDR Latino – CMHDD

    1h 50m 2002

    Detroit, 1995. La promesa de potencia industrial se ha transformado en un hervidero de conflictos económicos...

    Director: Michael J. Moore

    Género: Drama

    Actores: Xzibit

descargar Tulsa King (2022) Temporada 1 AMZN WEB-DL 1080p Latino 1080p 1080p gratis, Tulsa King (2022) Temporada 1 AMZN WEB-DL 1080p Latino 1080p mega 1 link, Tulsa King (2022) Temporada 1 AMZN WEB-DL 1080p Latino 1080p serie completa, descargar Tulsa King (2022) Temporada 1 AMZN WEB-DL 1080p Latino 1080p gratis en mega.

Tulsa King (2022) Temporada 1 AMZN WEB-DL 1080p Latino pelicula full hd, Tulsa King (2022) Temporada 1 AMZN WEB-DL 1080p Latino mega latino, Tulsa King (2022) Temporada 1 AMZN WEB-DL 1080p Latino 4k latino, Tulsa King (2022) Temporada 1 AMZN WEB-DL 1080p Latino pelicula completa, Tulsa King (2022) Temporada 1 AMZN WEB-DL 1080p Latino descargar gratis, descargar Tulsa King (2022) Temporada 1 AMZN WEB-DL 1080p Latino pelicula latino, Tulsa King (2022) Temporada 1 AMZN WEB-DL 1080p Latino 1 link mega, Tulsa King (2022) Temporada 1 AMZN WEB-DL 1080p Latino 1 link google drive, Tulsa King (2022) Temporada 1 AMZN WEB-DL 1080p Latino hd 1080p latino.
Comentarios 0