×

¿Problemas para descargar con Mozilla, EDGE? Deshabilita la opción "Abrir vinculos en una pestaña nueva" tal como lo muestra ésta imagen.

Tú no eres especial (2022) Temporada 1 NF WEB-DL 1080p Castellano

94 vistas

Información de Tú no eres especial (2022) Temporada 1 NF WEB-DL 1080p Castellano

Datos de la película

  • Calidad: WEBDL
  • Audio: Español España AC3 5.1 Netflix
  • Subtitulos: Español Latino SRT- FORZADOS SRT
  • Resolución: 1920x1080p
  • Formato: MKV
  • Codec: H.264
  • Encoder: Melkor
  • Mediainfo: Clic para Mostrar Datos Ver
  • Tu No Eres Especial S01E01 (2022) NF WebDL 1080p Latino.mkv
    Format                      : Matroska
    Format version              : Version 4
    File size                   : 1.09 GiB
    Duration                    : 33 min 12 s
    Overall bit rate mode       : Variable
    Overall bit rate            : 4 715 kb/s
    Movie name                  : Tu No Eres Especial S01E01 CinemaniaHDD.Net
    Encoded date                : UTC 2022-09-04 06:02:41
    Writing application         : mkvmerge v56.1.0 ('My Friend') 64-bit
    Writing library             : libebml v1.4.2 + libmatroska v1.6.4
    Attachments                 : CINEMANIAHD.png

    Video
    ID                          : 1
    Format                      : AVC
    Format/Info                 : Advanced Video Codec
    Format profile              : Main@L4
    Format settings             : CABAC / 3 Ref Frames
    Format settings, CABAC      : Yes
    Format settings, Reference  : 3 frames
    Codec ID                    : V_MPEG4/ISO/AVC
    Duration                    : 33 min 12 s
    Bit rate mode               : Variable
    Bit rate                    : 3 945 kb/s
    Nominal bit rate            : 5 110 kb/s
    Maximum bit rate            : 7 665 kb/s
    Width                       : 1 920 pixels
    Height                      : 1 080 pixels
    Display aspect ratio        : 16:9
    Frame rate mode             : Constant
    Frame rate                  : 25.000 FPS
    Color space                 : YUV
    Chroma subsampling          : 4:2:0
    Bit depth                   : 8 bits
    Scan type                   : Progressive
    Bits/(Pixel*Frame)          : 0.076
    Stream size                 : 937 MiB (84%)
    Title                       : WEB HD1080p [CinemaniaHDD]
    Writing library             : x264 core 148 r2727 7d026e8
    Encoding settings           : cabac=1 / ref=3 / deblock=1:0:0 / analyse=0x1:0x111 / me=umh / subme=10 / psy=1 / psy_rd=1.00:0.00 / mixed_ref=1 / me_range=24 / chroma_me=1 / trellis=2 / 8x8dct=0 / cqm=0 / deadzone=21,11 / fast_pskip=1 / chroma_qp_offset=-2 / threads=8 / lookahead_threads=1 / sliced_threads=0 / nr=0 / decimate=1 / interlaced=0 / bluray_compat=0 / stitchable=1 / constrained_intra=0 / bframes=2 / b_pyramid=0 / b_adapt=2 / b_bias=0 / direct=3 / weightb=1 / open_gop=0 / weightp=2 / keyint=250 / keyint_min=25 / scenecut=0 / intra_refresh=0 / rc_lookahead=50 / rc=2pass / mbtree=1 / bitrate=5110 / ratetol=1.0 / qcomp=0.50 / qpmin=6 / qpmax=51 / qpstep=4 / cplxblur=20.0 / qblur=0.5 / vbv_maxrate=7665 / vbv_bufsize=10220 / nal_hrd=vbr / filler=0 / ip_ratio=1.40 / aq=1:1.00
    Language                    : Spanish
    Default                     : Yes
    Forced                      : Yes

    Audio
    ID                          : 2
    Format                      : E-AC-3 JOC
    Format/Info                 : Enhanced AC-3 with Joint Object Coding
    Commercial name             : Dolby Digital Plus with Dolby Atmos
    Codec ID                    : A_EAC3
    Duration                    : 33 min 12 s
    Bit rate mode               : Constant
    Bit rate                    : 768 kb/s
    Channel(s)                  : 6 channels
    Channel layout              : L R C LFE Ls Rs
    Sampling rate               : 48.0 kHz
    Frame rate                  : 31.250 FPS (1536 SPF)
    Compression mode            : Lossy
    Stream size                 : 182 MiB (16%)
    Title                       : Español [CinemaniaHDD]
    Language                    : Spanish
    Service kind                : Complete Main
    Default                     : Yes
    Forced                      : Yes
    Complexity index            : 16
    Number of dynamic objects   : 15
    Bed channel count           : 1 channel
    Bed channel configuration   : LFE

    Text #1
    ID                          : 3
    Format                      : UTF-8
    Codec ID                    : S_TEXT/UTF8
    Codec ID/Info               : UTF-8 Plain Text
    Duration                    : 20 min 16 s
    Bit rate                    : 0 b/s
    Count of elements           : 5
    Stream size                 : 140 Bytes (0%)
    Title                       : Forzados-SRT [CinemaniaHDD]
    Language                    : Spanish
    Default                     : Yes
    Forced                      : Yes

    Text #2
    ID                          : 4
    Format                      : UTF-8
    Codec ID                    : S_TEXT/UTF8
    Codec ID/Info               : UTF-8 Plain Text
    Duration                    : 30 min 21 s
    Bit rate                    : 83 b/s
    Count of elements           : 552
    Stream size                 : 18.6 KiB (0%)
    Title                       : Español-SRT [CinemaniaHDD]
    Language                    : Spanish
    Default                     : No
    Forced                      : No

  • Peso: 1.30 GiB Aprox. C/U -- 7.24 GiB -- 6 Chapters

Sinopsis

Descargar Tú no eres especial (2022) Temporada 1 NF WEB-DL 1080p Castellano. La vida de Amaia es, resumida en sus palabras, una mierda. De la noche a la mañana tiene que decir adiós a su vida en Barcelona, donde tiene a todos sus amigos y su día a día establecido, para ir a vivir al pueblo de su madre donde NUNCA ocurre nada. Sin embargo, pronto descubrirá un detalle que puede darle un giro a su vida… que, tal vez, ha heredado los poderes de su abuela: una mujer a la que no llegó a conocer, pero con fama de ser la única bruja que ha existido en el pueblo de Salavarría.

Español Castellano EAC3 JOC 5.1 NF

Ficha técnica

Video trailer de la película

Enlaces de descarga

Rip de Bluray

Descargar Tú no eres especial (2022) Temporada 1 NF WEB-DL 1080p Castellano




Aportes de DPeliculasHDmega la pass es:dpeliculashdmega.org Aportes de CinemaniaHD la pass es:cinemaniahdd.com

Películas relacionadas

descargar Tú no eres especial (2022) Temporada 1 NF WEB-DL 1080p Castellano WEBDL 1080p gratis, Tú no eres especial (2022) Temporada 1 NF WEB-DL 1080p Castellano WEBDL mega 1 link, Tú no eres especial (2022) Temporada 1 NF WEB-DL 1080p Castellano WEBDL serie completa, descargar Tú no eres especial (2022) Temporada 1 NF WEB-DL 1080p Castellano WEBDL gratis en mega.

Tú no eres especial (2022) Temporada 1 NF WEB-DL 1080p Castellano pelicula full hd, Tú no eres especial (2022) Temporada 1 NF WEB-DL 1080p Castellano mega latino, Tú no eres especial (2022) Temporada 1 NF WEB-DL 1080p Castellano 4k latino, Tú no eres especial (2022) Temporada 1 NF WEB-DL 1080p Castellano pelicula completa, Tú no eres especial (2022) Temporada 1 NF WEB-DL 1080p Castellano descargar gratis, descargar Tú no eres especial (2022) Temporada 1 NF WEB-DL 1080p Castellano pelicula latino, Tú no eres especial (2022) Temporada 1 NF WEB-DL 1080p Castellano 1 link mega, Tú no eres especial (2022) Temporada 1 NF WEB-DL 1080p Castellano 1 link google drive, Tú no eres especial (2022) Temporada 1 NF WEB-DL 1080p Castellano hd 1080p latino.
Comentarios 0