×

¿Problemas para descargar con Mozilla, EDGE? Deshabilita la opción "Abrir vinculos en una pestaña nueva" tal como lo muestra ésta imagen.

Truth Seekers (2020) Temporada 1 AMZN WEB-DL 1080p Latino

282 vistas

Información de Truth Seekers (2020) Temporada 1 AMZN WEB-DL 1080p Latino

Datos de la película

  • Calidad: WEBDL
  • Audio: Español Latino E-AC3 5.1 AMAZON - Ingles E-AC3 5.1 AMAZON
  • Subtitulos: Español Latino SRT- FORZADOS SRT
  • Resolución: 1920x1080
  • Formato: MKV
  • Codec: H.264
  • Encoder: cinemaniahdd
  • Mediainfo: Clic para Mostrar Datos Ver
  • Truth Seekers T01E01 AMZN WEB-DL 1080p Latino [CNMNHDD].mkv
    Format                      : Matroska
    Format version              : Version 4
    File size                   : 1.43 GiB
    Duration                    : 28 min 45 s
    Overall bit rate            : 7 138 kb/s
    Movie name                  : Truth Seekers T01E01 - CinemaniaHDD.Net
    Encoded date                : UTC 2020-10-30 01:52:11
    Writing application         : mkvmerge v51.0.0 ('I Wish') 64-bit
    Writing library             : libebml v1.4.0 + libmatroska v1.6.2

    Video
    ID                          : 1
    Format                      : AVC
    Format/Info                 : Advanced Video Codec
    Format profile              : High@L4
    Format settings             : CABAC / 4 Ref Frames
    Format settings, CABAC      : Yes
    Format settings, Reference  : 4 frames
    Codec ID                    : V_MPEG4/ISO/AVC
    Duration                    : 28 min 45 s
    Bit rate mode               : Constant
    Bit rate                    : 5 215 kb/s
    Nominal bit rate            : 10 000 kb/s
    Width                       : 1 920 pixels
    Height                      : 1 080 pixels
    Display aspect ratio        : 16:9
    Frame rate mode             : Constant
    Frame rate                  : 23.976 (24000/1001) FPS
    Color space                 : YUV
    Chroma subsampling          : 4:2:0
    Bit depth                   : 8 bits
    Scan type                   : Progressive
    Bits/(Pixel*Frame)          : 0.105
    Stream size                 : 1.05 GiB (73%)
    Title                       : CinemaniaHDD
    Default                     : Yes
    Forced                      : No
    Color range                 : Limited
    Color primaries             : BT.709
    Transfer characteristics    : BT.709
    Matrix coefficients         : BT.709

    Audio #1
    ID                          : 2
    Format                      : AC-3
    Format/Info                 : Audio Coding 3
    Commercial name             : Dolby Digital
    Codec ID                    : A_AC3
    Duration                    : 28 min 45 s
    Bit rate mode               : Constant
    Bit rate                    : 640 kb/s
    Channel(s)                  : 6 channels
    Channel layout              : L R C LFE Ls Rs
    Sampling rate               : 48.0 kHz
    Frame rate                  : 31.250 FPS (1536 SPF)
    Compression mode            : Lossy
    Stream size                 : 132 MiB (9%)
    Title                       : Español latino - AC3 [CinemaniaHDD]
    Language                    : Spanish
    Service kind                : Complete Main
    Default                     : Yes
    Forced                      : No

    Audio #2
    ID                          : 3
    Format                      : E-AC-3
    Format/Info                 : Enhanced AC-3
    Commercial name             : Dolby Digital Plus
    Codec ID                    : A_EAC3
    Duration                    : 28 min 45 s
    Bit rate mode               : Constant
    Bit rate                    : 640 kb/s
    Channel(s)                  : 6 channels
    Channel layout              : L R C LFE Ls Rs
    Sampling rate               : 48.0 kHz
    Frame rate                  : 31.250 FPS (1536 SPF)
    Compression mode            : Lossy
    Stream size                 : 132 MiB (9%)
    Title                       : Español latino - E-AC3 [CinemaniaHDD]
    Language                    : Spanish
    Service kind                : Complete Main
    Default                     : No
    Forced                      : No

    Audio #3
    ID                          : 4
    Format                      : E-AC-3
    Format/Info                 : Enhanced AC-3
    Commercial name             : Dolby Digital Plus
    Codec ID                    : A_EAC3
    Duration                    : 28 min 45 s
    Bit rate mode               : Constant
    Bit rate                    : 640 kb/s
    Channel(s)                  : 6 channels
    Channel layout              : L R C LFE Ls Rs
    Sampling rate               : 48.0 kHz
    Frame rate                  : 31.250 FPS (1536 SPF)
    Compression mode            : Lossy
    Stream size                 : 132 MiB (9%)
    Title                       : Inglés [CinemaniaHDD]
    Language                    : English
    Service kind                : Complete Main
    Default                     : No
    Forced                      : No

    Text #1
    ID                          : 5
    Format                      : UTF-8
    Codec ID                    : S_TEXT/UTF8
    Codec ID/Info               : UTF-8 Plain Text
    Duration                    : 26 min 9 s
    Bit rate                    : 0 b/s
    Count of elements           : 6
    Stream size                 : 187 Bytes (0%)
    Title                       : Forzados [CinemaniaHDD]
    Language                    : Spanish
    Default                     : Yes
    Forced                      : Yes

    Text #2
    ID                          : 6
    Format                      : UTF-8
    Codec ID                    : S_TEXT/UTF8
    Codec ID/Info               : UTF-8 Plain Text
    Duration                    : 28 min 26 s
    Bit rate                    : 55 b/s
    Count of elements           : 403
    Stream size                 : 11.7 KiB (0%)
    Title                       : Español latino [CinemaniaHDD]
    Language                    : Spanish
    Default                     : No
    Forced                      : No

     

  • Peso: 1.43 GiB Aprox ---- 11.9 GiB in 8 Chapters.

Sinopsis

Protagonizada por Nick Frost y Simon Pegg. Truth Seekers es una comedia sobrenatural sobre un grupo de investigadores paranormales que se unen para descubrir y filmar avistamientos de fantasmas en el Reino Unido. Sin embargo, a medida que sus experiencias sobrenaturales se vuelven más frecuentes, descubren una aterradora conspiración con consecuencias letales.

Ficha técnica

Video trailer de la película

Enlaces de descarga

Rip de Bluray

Descargar Truth Seekers (2020) Temporada 1 AMZN WEB-DL 1080p Latino




Aportes de DPeliculasHDmega la pass es:dpeliculashdmega.org Aportes de CinemaniaHD la pass es:cinemaniahdd.com
Guardado en : Comedia , Series

Películas relacionadas

descargar Truth Seekers (2020) Temporada 1 AMZN WEB-DL 1080p Latino WEBDL 1080p gratis, Truth Seekers (2020) Temporada 1 AMZN WEB-DL 1080p Latino WEBDL mega 1 link, Truth Seekers (2020) Temporada 1 AMZN WEB-DL 1080p Latino WEBDL serie completa, descargar Truth Seekers (2020) Temporada 1 AMZN WEB-DL 1080p Latino WEBDL gratis en mega.

Truth Seekers (2020) Temporada 1 AMZN WEB-DL 1080p Latino pelicula full hd, Truth Seekers (2020) Temporada 1 AMZN WEB-DL 1080p Latino mega latino, Truth Seekers (2020) Temporada 1 AMZN WEB-DL 1080p Latino 4k latino, Truth Seekers (2020) Temporada 1 AMZN WEB-DL 1080p Latino pelicula completa, Truth Seekers (2020) Temporada 1 AMZN WEB-DL 1080p Latino descargar gratis, descargar Truth Seekers (2020) Temporada 1 AMZN WEB-DL 1080p Latino pelicula latino, Truth Seekers (2020) Temporada 1 AMZN WEB-DL 1080p Latino 1 link mega, Truth Seekers (2020) Temporada 1 AMZN WEB-DL 1080p Latino 1 link google drive, Truth Seekers (2020) Temporada 1 AMZN WEB-DL 1080p Latino hd 1080p latino.
Comentarios 0