×

¿Problemas para descargar con Mozilla, EDGE? Deshabilita la opción "Abrir vinculos en una pestaña nueva" tal como lo muestra ésta imagen.

True Detective (2019) Tercera Temporada REMUX 1080p latino – CMHDD

226 vistas

Información de True Detective (2019) Tercera Temporada REMUX 1080p latino – CMHDD

Datos de la película

  • Calidad: Full 1080p
  • Audio: Español Latino DTS 2.0 BLURAY - Ingles DTS 5.1 BLURAY
  • Subtitulos: Español Latino PGS
  • Resolución: 1920x1080p
  • Formato: MKV
  • Codec: H.264
  • Encoder: Dracarys
  • Mediainfo: Clic para Mostrar Datos Ver
  • Format                      : Matroska
    Format version              : Version 4
    File size                   : 11.1 GiB
    Duration                    : 58 min 58 s
    Overall bit rate mode       : Variable
    Overall bit rate            : 27.0 Mb/s
    Movie name                  : True Detective (2019) [S03E01] REMUX 1080p latino – CMHDD
    Encoded date                : UTC 2021-01-03 19:13:44
    Writing application         : mkvmerge v51.0.0 ('I Wish') 64-bit
    Writing library             : libebml v1.4.0 + libmatroska v1.6.2

    Video
    ID                          : 1
    Format                      : AVC
    Format/Info                 : Advanced Video Codec
    Format profile              : High@L4.1
    Format settings             : CABAC / 4 Ref Frames
    Format settings, CABAC      : Yes
    Format settings, Reference  : 4 frames
    Codec ID                    : V_MPEG4/ISO/AVC
    Duration                    : 58 min 58 s
    Bit rate mode               : Variable
    Bit rate                    : 23.7 Mb/s
    Maximum bit rate            : 35.0 Mb/s
    Width                       : 1 920 pixels
    Height                      : 1 080 pixels
    Display aspect ratio        : 16:9
    Frame rate mode             : Constant
    Frame rate                  : 23.976 (24000/1001) FPS
    Color space                 : YUV
    Chroma subsampling          : 4:2:0
    Bit depth                   : 8 bits
    Scan type                   : Progressive
    Bits/(Pixel*Frame)          : 0.477
    Stream size                 : 9.77 GiB (88%)
    Default                     : Yes
    Forced                      : No

    Audio #1
    ID                          : 2
    Format                      : DTS XLL
    Format/Info                 : Digital Theater Systems
    Commercial name             : DTS-HD Master Audio
    Codec ID                    : A_DTS
    Duration                    : 58 min 58 s
    Bit rate mode               : Variable
    Bit rate                    : 2 526 kb/s
    Channel(s)                  : 6 channels
    Channel layout              : C L R Ls Rs LFE
    Sampling rate               : 48.0 kHz
    Frame rate                  : 93.750 FPS (512 SPF)
    Bit depth                   : 24 bits
    Compression mode            : Lossless
    Stream size                 : 1.04 GiB (9%)
    Language                    : English
    Default                     : Yes
    Forced                      : No

    Audio #2
    ID                          : 3
    Format                      : DTS
    Format/Info                 : Digital Theater Systems
    Codec ID                    : A_DTS
    Duration                    : 58 min 58 s
    Bit rate mode               : Constant
    Bit rate                    : 768 kb/s
    Channel(s)                  : 2 channels
    Channel layout              : Lt Rt
    Sampling rate               : 48.0 kHz
    Frame rate                  : 93.750 FPS (512 SPF)
    Bit depth                   : 24 bits
    Compression mode            : Lossy
    Stream size                 : 324 MiB (3%)
    Language                    : Spanish
    Default                     : No
    Forced                      : No

    Text
    ID                          : 4
    Format                      : PGS
    Muxing mode                 : zlib
    Codec ID                    : S_HDMV/PGS
    Codec ID/Info               : Picture based subtitle format used on BDs/HD-DVDs
    Duration                    : 55 min 28 s
    Bit rate                    : 30.5 kb/s
    Count of elements           : 1340
    Stream size                 : 12.1 MiB (0%)
    Language                    : Spanish
    Default                     : Yes
    Forced                      : No

  • Peso: 89 GiB Total

Sinopsis

En esta ocasión, la acción se situará en pleno corazón de la meseta de Ozark, en el estado de Arkansas. Esta localización servirá como escenario para resolver un crimen macabro que solo puede ser explicado en tres líneas temporales diferentes.

De poco servirá el caso investigado por los agentes Rust Cohle y Marty Hart de diecisiete años de antiguedad. En esta ocasión, el detective policial del Estado, Wayne Hays, deberá descubrir la verdad detrás de la masacre; y deberá hacerlo sin ningun caso que sirva como fuente.

Ficha técnica

  • Titulo original: True Detective
  • Fecha de lanzamiento: 12-01-2014 (US)
  • Director: Nic Pizzolatto
  • Género: Drama

Video trailer de la película

Enlaces de descarga

Rip de Bluray

Descargar True Detective (2019) Tercera Temporada REMUX 1080p latino – CMHDD


Aportes de DPeliculasHDmega la pass es:dpeliculashdmega.org Aportes de CinemaniaHD la pass es:cinemaniahdd.com
Guardado en : Drama

Películas relacionadas

descargar True Detective (2019) Tercera Temporada REMUX 1080p latino – CMHDD Full 1080p 1080p gratis, True Detective (2019) Tercera Temporada REMUX 1080p latino – CMHDD Full 1080p mega 1 link, True Detective (2019) Tercera Temporada REMUX 1080p latino – CMHDD Full 1080p pelicula completa, descargar True Detective (2019) Tercera Temporada REMUX 1080p latino – CMHDD Full 1080p gratis en mega.

True Detective (2019) Tercera Temporada REMUX 1080p latino – CMHDD pelicula full hd, True Detective (2019) Tercera Temporada REMUX 1080p latino – CMHDD mega latino, True Detective (2019) Tercera Temporada REMUX 1080p latino – CMHDD 4k latino, True Detective (2019) Tercera Temporada REMUX 1080p latino – CMHDD pelicula completa, True Detective (2019) Tercera Temporada REMUX 1080p latino – CMHDD descargar gratis, descargar True Detective (2019) Tercera Temporada REMUX 1080p latino – CMHDD pelicula latino, True Detective (2019) Tercera Temporada REMUX 1080p latino – CMHDD 1 link mega, True Detective (2019) Tercera Temporada REMUX 1080p latino – CMHDD 1 link google drive, True Detective (2019) Tercera Temporada REMUX 1080p latino – CMHDD hd 1080p latino.
Comentarios 0